Я закопаю тебя / Je te survivrai (Сильвестр Сбилье / Sylvestre Sbille) [2014, Бельгия, Франция, комедия, WEBRip] MVO

Ответить на тему
 
Автор Сообщение

user ®

Стаж: 7 лет 7 месяцев

Сообщений: 20008

Пост Пост: #1 от 03-Июл-2014 17:45

[Цитировать]

Я закопаю тебяJe te survivra_____________________________________________________________________ Год выпуска: 2014
Производство: Бельгия, Франция
Жанр: комедия
Перевод: Профессиональный (многоголосый закадровый)
Субтитры: Отсутствуют
Оригинальная дорожка: Отсутствует
Продолжительность: 01:28:09
Режиссер: Сильвестр Сбилье
В ролях: Джонатан Цассаи, Бен Рига, Лорен Капеллуто, Таня Гарбарски, Давид Муржиа, Марго Леду, Эмма Дюпон, Пьер Хендрикс
Описание: Джо совершенно невыносимый, но обаятельный агент по продаже недвижимости — гениален в своем деле, может продать сарай по цене особняка эпохи Возрождения. Едва Джо перебирается в тихий домик загород и у него наступает спокойное затишье, в его размеренную жизнь врывается вздорная старушка-соседка с выводком блохастых кошек и постоянными истериками по утрам и вечерам. В довершение всего, Джо ненавидит вредную соседку ровно так же, как и она его. Решив разделаться со старухой, Джо сталкивается с неожиданным препятствием — бабушка, судя по всему, бессмертна.
Качество видео: WEBRip [сэмпл]
Видеокодек: XviD
Аудиокодек: MP3
Видео: 640x272 (2.35:1), 25 fps, XviD build 50, 972 kbps avg, 0.22 bit/pixel
Аудио: 48 kHz, MPEG Layer 3, 2 ch, 128.00 kbps avg
Скриншоты MediaInfo

Общее
Полное имя : D:\Ya zakopau tebya.WEBRip.700.avi
Формат : AVI
Формат/Информация : Audio Video Interleave
Размер файла : 700 Мбайт
Продолжительность : 1 ч. 28 м.
Общий поток : 1111 Кбит/сек
Программа кодирования : VirtualDubMod 1.5.10.3 | www.virtualdub-fr.org || (build 2550/release)
Библиотека кодирования : VirtualDubMod build 2550/release
Видео
Идентификатор : 0
Формат : MPEG-4 Visual
Профиль формата : Advanced Simple@L5
Параметр BVOP формата : 2
Параметр QPel формата : Нет
Параметр GMC формата : Без точки перехода
Параметр матрицы формата : Default (MPEG)
Идентификатор кодека : XVID
Идентификатор кодека/Подсказка : XviD
Продолжительность : 1 ч. 28 м.
Битрейт : 973 Кбит/сек
Ширина : 640 пикселей
Высота : 272 пикселя
Соотношение сторон : 2,35:1
Частота кадров : 25,000 кадров/сек
Цветовое пространство : YUV
Субдискретизация насыщенности : 4:2:0
Битовая глубина : 8 бит
Тип развёртки : Прогрессивная
Метод сжатия : С потерями
Бит/(Пиксели*Кадры) : 0.224
Размер потока : 613 Мбайт (88%)
Библиотека кодирования : XviD 1.2.1 (UTC 2008-12-04)
Аудио
Идентификатор : 1
Формат : MPEG Audio
Версия формата : Version 1
Профиль формата : Layer 3
Идентификатор кодека : 55
Идентификатор кодека/Подсказка : MP3
Продолжительность : 1 ч. 28 м.
Вид битрейта : Постоянный
Битрейт : 128 Кбит/сек
Каналы : 2 канала
Частота : 48,0 КГц
Метод сжатия : С потерями
Размер потока : 80,7 Мбайт (12%)
Выравнивание : Соединение по промежуткам
Продолжительность промежутка : 40 мс. (1,00 видеокадр)
Время предзагрузки промежутка : 504 мс.
Библиотека кодирования : LAME3.99r
Настройки программы : -m s -V 4 -q 2 -lowpass 17 -b 128
Скачать

Скачать торрент!

Как скачивать? · Что такое торрент? · Рейтинг и ограничения

Сайт не распространяет и не хранит электронные версии произведений, а лишь предоставляет доступ к создаваемому пользователями каталогу ссылок на торрент-файлы, которые содержат только списки хеш-сумм

[Профиль] [ЛС]
Показать сообщения:    
Ответить на тему

Текущее время: Сегодня 00:10

Часовой пояс: GMT + 4



Вы не можете начинать темы
Вы не можете отвечать на сообщения
Вы не можете редактировать свои сообщения
Вы не можете удалять свои сообщения
Вы не можете голосовать в опросах
Вы не можете прикреплять файлы к сообщениям
Вы не можете скачивать файлы