Воздушный маршал / Non-Stop (Хауме Кольет-Серра / Jaume Collet-Serra) [2014, Великобритания, Франция, США, боевик, триллер, детектив, BDRemux 1080p] Dub + VO (Есарев) + Sub Rus,Eng + Original Eng + Comm

Ответить на тему
 
Автор Сообщение

user ®

Стаж: 7 лет 7 месяцев

Сообщений: 20008

Пост Пост: #1 от 03-Июл-2014 14:35

[Цитировать]

Воздушный маршал / Non-Stop Страна: Великобритания, Франция, США
Студия: StudioCanal, Silver Pictures, Anton Capital Entertainment (ACE)
Жанр: боевик, триллер, детектив
Год выпуска: 2014
Продолжительность: 01:46:37
Перевод 1: Профессиональный (дублированный) Blu-Ray Rus
Перевод 2: Одноголосый (закадровый) Д.Есарев
Cубтитры: русские(forced, full), английские(full, SDH, SDH-Colored)
Оригинальная аудиодорожка: английский
Режиссер: Хауме Кольет-Серра / Jaume Collet-Serra
В ролях: Лиам Нисон, Джулианна Мур, Скут МакНэйри, Мишель Докери, Нэйт Паркер, Кори Столл, Лупита Нионго, Омар Метуолли, Джейсон Батлер Харнер, Лайнас Роуч
Описание: Межконтинентальный авиарейс. Билл Маркс, воздушный маршал, который обеспечивает безопасность пассажиров, получает сообщения с угрозами от маньяка-террориста. Преступник просчитал все ходы и подставил под обвинение самого спецагента. Теперь Маркс — цель спецслужб США. Ему остается одно: вычислить и обезвредить преступника, спасти пассажиров и свою любовь, которую он обретает на краю гибели. До взрыва остаются считанные минуты…

Тип релиза: BDRemux 1080p
Контейнер: MKV
Видео:AVC, 1920x1080, 32045 kbps, 23.976 fps
Аудио 1: DTS-HD Master Audio Russian 4111 kbps 5.1 / 48 kHz / 4111 kbps / 24-bit (DTS Core: 5.1 / 48 kHz / 1509 kbps / 24-bit) |Blu-Ray RUS|
Аудио 2: DTS-HD Master Audio Russian 3914 kbps 5.1 / 48 kHz / 3914 kbps / 24-bit (DTS Core: 5.1 / 48 kHz / 1509 kbps / 24-bit) |Есарев|
Аудио 3: DTS-HD Master Audio English 4081 kbps 5.1 / 48 kHz / 4081 kbps / 24-bit (DTS Core: 5.1 / 48 kHz / 1509 kbps / 24-bit) |Original|
Аудио 4: English: 48 kHz, AC3, 2/0 (L,R) ch, ~192 kbps avg |Commentary|
Чаптеры:есть

Доп.информация
Перевод Дмитрия Есарева доступен благодаря пользователям "Переулка Переводмана": Skazhutin, Mr. X, Loki1982, Прохожий, будулайроманов, Kruj0k, igrok2012, dikii.
Работа со звуком - Переводман.
За русские сабы спасибо Skazhutin.
MediaInfo
General
Unique ID : 181539531039450883322327172955473058699 (0x88933DECA07A5CD0A235EDC656BE1B8B)
Complete name : D:\Non-Stop.(2014).1080p.BD-Remux-Talian-.mkv
Format : Matroska
Format version : Version 2
File size : 32.9 GiB
Duration : 1h 46mn
Overall bit rate mode : Variable
Overall bit rate : 44.2 Mbps
Movie name : -Talian-
Encoded date : UTC 2014-06-21 05:36:29
Writing application : mkvmerge v5.7.0 ('The Whirlwind') built on Jul 8 2012 20:08:51
Writing library : libebml v1.2.3 + libmatroska v1.3.0
Video
ID : 1
Format : AVC
Format/Info : Advanced Video Codec
Format profile : High@L4.1
Format settings, CABAC : Yes
Format settings, ReFrames : 4 frames
Codec ID : V_MPEG4/ISO/AVC
Duration : 1h 46mn
Bit rate mode : Variable
Bit rate : 35.0 Mbps
Width : 1 920 pixels
Height : 1 080 pixels
Display aspect ratio : 16:9
Frame rate : 23.976 fps
Color space : YUV
Chroma subsampling : 4:2:0
Bit depth : 8 bits
Scan type : Progressive
Bits/(Pixel*Frame) : 0.704
Stream size : 25.9 GiB (79%)
Title : Remux
Language : English
Default : Yes
Forced : No
Audio #1
ID : 2
Format : DTS
Format/Info : Digital Theater Systems
Format profile : MA / Core
Codec ID : A_DTS
Duration : 1h 46mn
Bit rate mode : Variable
Bit rate : 2 821 Kbps / 1 510 Kbps
Channel(s) : 6 channels
Channel positions : Front: L C R, Side: L R, LFE
Sampling rate : 48.0 KHz
Bit depth : 24 bits
Compression mode : Lossless / Lossy
Title : DUB-Blu-Ray Rus
Language : Russian
Default : Yes
Forced : No
Audio #2
ID : 3
Format : DTS
Format/Info : Digital Theater Systems
Format profile : MA / Core
Codec ID : A_DTS
Duration : 1h 46mn
Bit rate mode : Variable
Bit rate : 2 770 Kbps / 1 510 Kbps
Channel(s) : 6 channels
Channel positions : Front: L C R, Side: L R, LFE
Sampling rate : 48.0 KHz
Bit depth : 24 bits
Compression mode : Lossless / Lossy
Title : VO-Д.Есарев
Language : Russian
Default : No
Forced : No
Audio #3
ID : 4
Format : DTS
Format/Info : Digital Theater Systems
Format profile : MA / Core
Codec ID : A_DTS
Duration : 1h 46mn
Bit rate mode : Variable
Bit rate : 2 842 Kbps / 1 510 Kbps
Channel(s) : 6 channels
Channel positions : Front: L C R, Side: L R, LFE
Sampling rate : 48.0 KHz
Bit depth : 24 bits
Compression mode : Lossless / Lossy
Title : Original
Language : English
Default : No
Forced : No
Audio #4
ID : 5
Format : AC-3
Format/Info : Audio Coding 3
Format profile : Dolby Digital
Mode extension : CM (complete main)
Format settings, Endianness : Big
Codec ID : A_AC3
Duration : 1h 46mn
Bit rate mode : Constant
Bit rate : 192 Kbps
Channel(s) : 2 channels
Channel positions : Front: L R
Sampling rate : 48.0 KHz
Bit depth : 16 bits
Compression mode : Lossy
Stream size : 146 MiB (0%)
Title : Commentary
Language : English
Default : No
Forced : No
Text #1
ID : 6
Format : UTF-8
Codec ID : S_TEXT/UTF8
Codec ID/Info : UTF-8 Plain Text
Title : Sub-forced
Language : Russian
Default : Yes
Forced : No
Text #2
ID : 7
Format : UTF-8
Codec ID : S_TEXT/UTF8
Codec ID/Info : UTF-8 Plain Text
Title : Sub-full
Language : Russian
Default : No
Forced : No
Text #3
ID : 8
Format : UTF-8
Codec ID : S_TEXT/UTF8
Codec ID/Info : UTF-8 Plain Text
Title : Sub-full
Language : English
Default : No
Forced : No
Text #4
ID : 9
Format : UTF-8
Codec ID : S_TEXT/UTF8
Codec ID/Info : UTF-8 Plain Text
Title : Sub-SDH
Language : English
Default : No
Forced : No
Text #5
ID : 10
Format : UTF-8
Codec ID : S_TEXT/UTF8
Codec ID/Info : UTF-8 Plain Text
Title : Sub-SDH-Colored
Language : English
Default : No
Forced : No
Menu
00:00:00.000 : 00:00:00.000
00:04:24.639 : 00:04:24.639
00:10:29.045 : 00:10:29.045
00:14:47.053 : 00:14:47.053
00:18:51.839 : 00:18:51.839
00:24:22.127 : 00:24:22.127
00:29:44.574 : 00:29:44.574
00:35:48.605 : 00:35:48.605
00:39:28.491 : 00:39:28.491
00:45:41.572 : 00:45:41.572
00:49:03.941 : 00:49:03.941
00:55:17.731 : 00:55:17.731
01:01:59.257 : 01:01:59.257
01:08:42.327 : 01:08:42.327
01:12:16.999 : 01:12:16.999
01:18:14.982 : 01:18:14.982
01:26:02.032 : 01:26:02.032
01:30:46.191 : 01:30:46.191
01:36:14.727 : 01:36:14.727
01:40:13.799 : 01:40:13.799
Сравнение исходников
BD USA vs BD RUS

Скриншоты
[Профиль] [ЛС]
Показать сообщения:    
Ответить на тему

Текущее время: Сегодня 20:19

Часовой пояс: GMT + 4



Вы не можете начинать темы
Вы не можете отвечать на сообщения
Вы не можете редактировать свои сообщения
Вы не можете удалять свои сообщения
Вы не можете голосовать в опросах
Вы не можете прикреплять файлы к сообщениям
Вы не можете скачивать файлы