Вот те на! (Сказка о наморднике и наперстке) / Uz pasaka (Розалия Стиебра / Rozalia Stiebra) [1986, рисованный мультфильм, DVDRip] VO

Ответить на тему
 
Автор Сообщение

user ®

Стаж: 7 лет 7 месяцев

Сообщений: 20008

Пост Пост: #1 от 03-Июл-2014 11:25

[Цитировать]

Вот те на! (Сказка о наморднике и наперстке) / Uz pasaka
Страна: СССР
Производство:Телефильм-Рига
Жанр: рисованный мультфильм
Продолжительность: 00:08:33
Год выпуска: 1986
Перевод: Одноголосый закадровый
Русские субтитры: нет
Режиссёр: Розалия Стиебра / Rozalia Stiebra
Описание: Мультипликационный фильм для детей младшего возраста по мотивам сказки И. Зиедониса о приключениях одной маленькой девочки Наперсточки, мечтающей стать колокольчиком.
Кинопоиск
Качество: DVDRip
Формат: AVI
Видео: 720x544 (1.32:1), 25 fps, XviD MPEG-4 ~1988 kbps avg, 0.20 bit/pixel
Аудио: 44.1 kHz, MPEG Layer 3, 2 ch, ~128.00 kbps avg
Субтитры: Отсутствуют

Подробные технические данные
GeneralComplete name : E:\1\Вот те на! 1986.aviFormat : AVIFormat/Info : Audio Video InterleaveFile size : 130 MiBDuration : 8mn 33sOverall bit rate : 2 125 KbpsWriting application : VirtualDubMod 1.5.10.2 (build 2540/release)Writing library : VirtualDubMod build 2540/release
VideoID : 0Format : MPEG-4 VisualFormat profile : Advanced Simple@L5Format settings, BVOP : 2Format settings, QPel : NoFormat settings, GMC : No warppointsFormat settings, Matrix : Default (H.263)Codec ID : XVIDCodec ID/Hint : XviDDuration : 8mn 33sBit rate : 1 988 KbpsWidth : 720 pixelsHeight : 544 pixelsDisplay aspect ratio : 4:3Frame rate : 25.000 fpsColor space : YUVChroma subsampling : 4:2:0Bit depth : 8 bitsScan type : ProgressiveCompression mode : LossyBits/(Pixel*Frame) : 0.203Stream size : 122 MiB (94%)Writing library : XviD 1.2.1 (UTC 2008-12-04)
AudioID : 1Format : MPEG AudioFormat version : Version 1Format profile : Layer 3Mode : Joint stereoMode extension : MS StereoCodec ID : 55Codec ID/Hint : MP3Duration : 8mn 33sBit rate mode : ConstantBit rate : 128 KbpsChannel count : 2 channelsSampling rate : 44.1 KHzCompression mode : LossyStream size : 7.83 MiB (6%)Alignment : Split accross interleavesInterleave, duration : 40 ms (1.00 video frame)Interleave, preload duration : 500 ms
Скриншоты
Скачать

Скачать торрент!

Как скачивать? · Что такое торрент? · Рейтинг и ограничения

Сайт не распространяет и не хранит электронные версии произведений, а лишь предоставляет доступ к создаваемому пользователями каталогу ссылок на торрент-файлы, которые содержат только списки хеш-сумм

[Профиль] [ЛС]
Показать сообщения:    
Ответить на тему

Текущее время: Сегодня 18:41

Часовой пояс: GMT + 4



Вы не можете начинать темы
Вы не можете отвечать на сообщения
Вы не можете редактировать свои сообщения
Вы не можете удалять свои сообщения
Вы не можете голосовать в опросах
Вы не можете прикреплять файлы к сообщениям
Вы не можете скачивать файлы