Ледяная комета / Bing Fung: Chung Sang Chi Mun (Винг-Чеонг Лау / Wing-cheong Law) [2014, Китай, Гонконг, фантастика, боевик, комедия, история, HDRip] DVO

Ответить на тему
 
Автор Сообщение

user ®

Стаж: 11 лет

Сообщений: 15151

Пост Пост: #1 от 03-Июл-2014 11:25

[Цитировать]

Ледяная комета 3D / Bing Fung: Chung Sang Chi Mun
Страна: Китай, Гонконг
Жанр: фантастика, боевик, комедия, история
Год выпуска: 2014
Продолжительность: 01:44:24
Перевод: Любительский (двухголосый закадровый) Франк Цветков и Елена Егорова
Cубтитры: нет
Режиссер: Винг-Чеонг Лау / Wing-cheong Law
В ролях: Донни Ен, Ван Баоцян, Ева Хуан, Юй Кан, Саймон Ям, Хой-Панг Ло, Сует Лам, Сингх Хартихан Битто, Хо-Ман Чан, Сиу Ва Чан
Описание: Капитана императорской гвардии времён династии Мин ошибочно обвиняют в убийстве и в сговоре с врагом, его бывшие товарищи гвардейцы отправляются за ним в погоню. Но их битва заканчивается тем, что все трое оказываются погребёнными на 300 лет под снегом сошедшей лавины.Замороженных солдат, найденных филантропом-богачом, отправляют обратно в Гонконг для изучения, но те оттаивают и сбегают.В ночь на Хэллоуин беглец находит убежище у выпившей и эмоционально истощённой барменши, и постепенно она помогает ему влиться в общество 21-го века.Тем временем, у остальных гвардейцев свои планы: один до сих пор хочет выследить беглеца и придать его правосудию, а другой решает заработать себе имя в современном Гонконге.
Сэмпл: http://multi-up.com/983957
Релиз группа:
Качество видео: HDRip
Формат видео: AVI
Видео: 720x320 (2.25:1), 23.976 fps, XviD build 50 ~1799 kbps avg, 0.33 bit/pixel
Аудио: 48 kHz, MPEG Layer 3, 2 ch, ~192.00 kbps avg
MediaInfo
Формат : AVI
Формат/Информация : Audio Video Interleave
Размер файла : 1,46 Гбайт
Продолжительность : 1 ч. 44 м.
Общий поток : 2001 Кбит/сек
Программа кодирования : VirtualDubMod 1.5.10.2 (build 2542/release)
Библиотека кодирования : VirtualDub build 32842/release
Видео
Идентификатор : 0
Формат : MPEG-4 Visual
Профиль формата : Advanced Simple@L5
Параметр BVOP формата : 2
Параметр QPel формата : Нет
Параметр GMC формата : Без точки перехода
Параметр матрицы формата : Default (MPEG)
Идентификатор кодека : XVID
Идентификатор кодека/Подсказка : XviD
Продолжительность : 1 ч. 44 м.
Битрейт : 1800 Кбит/сек
Ширина : 720 пикселей
Высота : 320 пикселей
Соотношение сторон : 2,25:1
Частота кадров : 23,976 кадра/сек
Цветовое пространство : YUV
Субдискретизация насыщенности : 4:2:0
Битовая глубина : 8 бит
Тип развёртки : Прогрессивная
Метод сжатия : С потерями
Бит/(Пиксели*Кадры) : 0.326
Размер потока : 1,31 Гбайт (90%)
Библиотека кодирования : XviD 1.2.1 (UTC 2008-12-04)
Аудио
Идентификатор : 1
Формат : MPEG Audio
Версия формата : Version 1
Профиль формата : Layer 3
Режим : Joint stereo
Идентификатор кодека : 55
Идентификатор кодека/Подсказка : MP3
Продолжительность : 1 ч. 44 м.
Вид битрейта : Постоянный
Битрейт : 192 Кбит/сек
Каналы : 2 канала
Частота : 48,0 КГц
Метод сжатия : С потерями
Размер потока : 143 Мбайт (10%)
Выравнивание : Разделение по промежуткам
Продолжительность промежутка : 42 мс. (1,00 видеокадр)
Время предзагрузки промежутка : 500 мс.
Скриншоты
Скачать

Скачать торрент! Ледяная комета / Bing Fung: Chung Sang Chi Mun (Винг-Чеонг Лау / Wing-cheong Law) [2014, Китай, Гонконг, фантастика, боевик, комедия, история, HDRip] DVO

Как скачивать? · Что такое торрент? · Рейтинг и ограничения

Сайт не распространяет и не хранит электронные версии произведений, а лишь предоставляет доступ к создаваемому пользователями каталогу ссылок на торрент-файлы, которые содержат только списки хеш-сумм

[Профиль] [ЛС]
Показать сообщения:    
Ответить на тему

Текущее время: Сегодня 12:55

Часовой пояс: GMT + 4



Вы не можете начинать темы
Вы не можете отвечать на сообщения
Вы не можете редактировать свои сообщения
Вы не можете удалять свои сообщения
Вы не можете голосовать в опросах
Вы не можете прикреплять файлы к сообщениям
Вы не можете скачивать файлы