Столкновение / Великолепный / Adhurs (В.В.Винаяк / V.V.Vinayak) [2010, Индия, Экшн, комедия, HDRip] MVO (Red Media)

Ответить на тему
 
Автор Сообщение

user ®

Стаж: 12 лет

Сообщений: 15092

Пост Пост: #1 от 03-Июл-2014 11:25

[Цитировать]

Столкновение / Adhurs
-Страна: Индия
Жанр: Экшн, комедия
Год выпуска: 2010
Продолжительность: 02:29:24-Перевод: Профессиональный (многоголосый закадровый) - Red Media [Индия ТВ]
Субтитры: Нет--Режиссер: В.В.Винаяк / V.V.Vinayak-В ролях: NTR младший, Наянтара, Шила, Брахманандам-Описание: Близнецов разлучают в младенчестве. Один остается с родной мамой, и улицы Хайдерабада воспитывают из него настоящего бойца. Второй попадает в семью ортодоксальных браминов и становится поборником установлений своей религии. Но от судьбы не убежишь, обстоятельства сводят их вновь - и "такие разные братья" то помогают, то мешают друг другу.
Фильм, как и все фильмы младшего NTR, полон песен и отличных танцев. (c) wichy-- | --Качество видео: HDRip
Формат видео: AVI-Видео: 688x288 (2.39:1), 24.000 fps, XviD build 50 ~1257 kbps avg, 0.26 bit/pixel
Аудио: 48 kHz, MPEG Layer 3, 2 ch, ~128.00 kbps-Сэмпл / Sample
-
Риппер, сведение звука: soso4eg-- -
-
Скриншот с названием:
-
Скриншоты
-
MI
Общее
Полное имя : K:\[Релизы]\Stolknovenie.2010.HDRip.XviD-soso4eg.avi
Формат : AVI
Формат/Информация : Audio Video Interleave
Размер файла : 1,46 Гбайт
Продолжительность : 2 ч. 29 м.
Общий поток : 1395 Кбит/сек
Название фильма : Adhurs.2010.HDRip.XviD-soso4eg
Режиссёр : soso4eg
Программа кодирования : VirtualDubMod 1.5.10.3 | www.virtualdub-fr.org || (build 2550/release)
Формат оригинала/Имя : Movie
Правообладатель : специально для BitTorrent трекер *** (ex torrents.ru)
Примечание : пер. Red Media
Видео
Идентификатор : 0
Формат : MPEG-4 Visual
Профиль формата : Advanced Simple@L5
Параметр BVOP формата : 1
Параметр QPel формата : Нет
Параметр GMC формата : Без точки перехода
Параметр матрицы формата : Default (H.263)
Идентификатор кодека : XVID
Идентификатор кодека/Подсказка : XviD
Продолжительность : 2 ч. 29 м.
Битрейт : 1258 Кбит/сек
Ширина : 688 пикселей
Высота : 288 пикселей
Соотношение сторон : 2,40:1
Частота кадров : 24,000 кадра/сек
Цветовое пространство : YUV
Субдискретизация насыщенности : 4:2:0
Битовая глубина : 8 бит
Тип развёртки : Прогрессивная
Метод сжатия : С потерями
Бит/(Пиксели*Кадры) : 0.264
Размер потока : 1,31 Гбайт (90%)
Библиотека кодирования : XviD 1.2.1 (UTC 2008-12-04)
Аудио
Идентификатор : 1
Формат : MPEG Audio
Версия формата : Version 1
Профиль формата : Layer 3
Режим : Joint stereo
Расширение режима : MS Stereo
Идентификатор кодека : 55
Идентификатор кодека/Подсказка : MP3
Продолжительность : 2 ч. 29 м.
Вид битрейта : Постоянный
Битрейт : 128 Кбит/сек
Каналы : 2 канала
Частота : 48,0 КГц
Метод сжатия : С потерями
Размер потока : 137 Мбайт (9%)
Выравнивание : Соединение по промежуткам
Продолжительность промежутка : 42 мс. (1,00 видеокадр)
Время предзагрузки промежутка : 504 мс.

-
-
Скачать

Скачать торрент! Столкновение / Великолепный / Adhurs (В.В.Винаяк / V.V.Vinayak) [2010, Индия, Экшн, комедия, HDRip] MVO (Red Media)

Как скачивать? · Что такое торрент? · Рейтинг и ограничения

Сайт не распространяет и не хранит электронные версии произведений, а лишь предоставляет доступ к создаваемому пользователями каталогу ссылок на торрент-файлы, которые содержат только списки хеш-сумм

[Профиль] [ЛС]
Показать сообщения:    
Ответить на тему

Текущее время: Сегодня 05:19

Часовой пояс: GMT + 4



Вы не можете начинать темы
Вы не можете отвечать на сообщения
Вы не можете редактировать свои сообщения
Вы не можете удалять свои сообщения
Вы не можете голосовать в опросах
Вы не можете прикреплять файлы к сообщениям
Вы не можете скачивать файлы