Я закопаю тебя / Je te survivrai (Сильвестр Сбилье / Sylvestre Sbille) [2014, Бельгия, Франция, комедия, WEBRip] MVO

Ответить на тему
 
Автор Сообщение

user ®

Стаж: 7 лет 7 месяцев

Сообщений: 20008

Пост Пост: #1 от 03-Июл-2014 11:25

[Цитировать]

Я закопаю тебяJe te survivra_____________________________________________________________________ Год выпуска: 2014
Производство: Бельгия, Франция
Жанр: комедия
Перевод: Профессиональный (многоголосый закадровый)
Субтитры: Отсутствуют
Оригинальная дорожка: Отсутствует
Продолжительность: 01:28:09
Режиссер: Сильвестр Сбилье
В ролях: Джонатан Цассаи, Бен Рига, Лорен Капеллуто, Таня Гарбарски, Давид Муржиа, Марго Леду, Эмма Дюпон, Пьер Хендрикс
Описание: Джо совершенно невыносимый, но обаятельный агент по продаже недвижимости — гениален в своем деле, может продать сарай по цене особняка эпохи Возрождения. Едва Джо перебирается в тихий домик загород и у него наступает спокойное затишье, в его размеренную жизнь врывается вздорная старушка-соседка с выводком блохастых кошек и постоянными истериками по утрам и вечерам. В довершение всего, Джо ненавидит вредную соседку ровно так же, как и она его. Решив разделаться со старухой, Джо сталкивается с неожиданным препятствием — бабушка, судя по всему, бессмертна.
Качество видео: WEBRip [сэмпл]
Видеокодек: XviD
Аудиокодек: AC3
Видео: 720x304 (2.37:1), 30 fps, XviD build 50, 2018 kbps avg, 0.31 bit/pixel
Аудио: 48 kHz, AC3 Dolby Digital, 2/0 (L,R) ch, 192 kbps
Скриншоты MediaInfo

Общее
Полное имя : D:\Ya.zakopau.tebya.WEBRip.avi
Формат : AVI
Формат/Информация : Audio Video Interleave
Размер файла : 1,37 Гбайт
Продолжительность : 1 ч. 28 м.
Общий поток : 2222 Кбит/сек
Программа кодирования : VirtualDubMod 1.5.10.3 | www.virtualdub-fr.org || (build 2550/release)
Библиотека кодирования : VirtualDubMod build 2550/release
Видео
Идентификатор : 0
Формат : MPEG-4 Visual
Профиль формата : Advanced Simple@L5
Параметр BVOP формата : 2
Параметр QPel формата : Нет
Параметр GMC формата : Без точки перехода
Параметр матрицы формата : Default (MPEG)
Идентификатор кодека : XVID
Идентификатор кодека/Подсказка : XviD
Продолжительность : 1 ч. 28 м.
Битрейт : 2018 Кбит/сек
Ширина : 720 пикселей
Высота : 304 пикселя
Соотношение сторон : 2,35:1
Частота кадров : 30,000 кадров/сек
Цветовое пространство : YUV
Субдискретизация насыщенности : 4:2:0
Битовая глубина : 8 бит
Тип развёртки : Прогрессивная
Метод сжатия : С потерями
Бит/(Пиксели*Кадры) : 0.307
Размер потока : 1,24 Гбайт (91%)
Библиотека кодирования : XviD 1.2.1 (UTC 2008-12-04)
Аудио
Идентификатор : 1
Формат : AC-3
Формат/Информация : Audio Coding 3
Расширение режима : CM (complete main)
Параметр Endianness формата : Big
Идентификатор кодека : 2000
Продолжительность : 1 ч. 28 м.
Вид битрейта : Постоянный
Битрейт : 192 Кбит/сек
Каналы : 2 канала
Расположение каналов : Front: L R
Частота : 48,0 КГц
Битовая глубина : 16 бит
Метод сжатия : С потерями
Размер потока : 121 Мбайт (9%)
Выравнивание : Разделение по промежуткам
Продолжительность промежутка : 33 мс. (1,00 видеокадр)
Время предзагрузки промежутка : 500 мс.
Скачать

Скачать торрент!

Как скачивать? · Что такое торрент? · Рейтинг и ограничения

Сайт не распространяет и не хранит электронные версии произведений, а лишь предоставляет доступ к создаваемому пользователями каталогу ссылок на торрент-файлы, которые содержат только списки хеш-сумм

[Профиль] [ЛС]
Показать сообщения:    
Ответить на тему

Текущее время: Сегодня 14:27

Часовой пояс: GMT + 4



Вы не можете начинать темы
Вы не можете отвечать на сообщения
Вы не можете редактировать свои сообщения
Вы не можете удалять свои сообщения
Вы не можете голосовать в опросах
Вы не можете прикреплять файлы к сообщениям
Вы не можете скачивать файлы