Внеземной театр / Внеземной / E.T.X.R. / ETXR (Тревор Сэндс / Trevor Sands) [2014, США, фантастика, WEB-DLRip] DVO (HamsterStudio)

Ответить на тему
 
Автор Сообщение

user ®

Стаж: 7 лет 7 месяцев

Сообщений: 20008

Пост Пост: #1 от 02-Июл-2014 23:40

[Цитировать]

Внеземной театр / Внеземной / E.T.X.R.
Страна: США
Жанр: фантастика
Год выпуска: 2014
Продолжительность: 01:17:54
Перевод: Любительский (двухголосый закадровый) HamsterStudio
Cубтитры: нет
Режиссер: Тревор Сэндс / Trevor Sands
В ролях: Калеб Хант, Джереми Люк, Леви Филер, Брайан Хоуи, Линдси Морган, Ксандер Беркли, Дэн Донохью, Питер Дуглас
Описание: Диджею Биксу от своего давнего приятеля достаётся легендарное изобретение Никола Теслы - тесласкоп, который, по легенде, способен принимать сигналы из внеземных миров.
Доп. информация:
Озвучка: Андрей Жариков и Юлия Реутова
Автор перевода: Antonio
Монтаж и сведение звука: Роман Мырон
Сэмпл: http://multi-up.com/983857
Качество видео: WEB-DLRip
Формат видео: AVI
Видео: DivX 5 704x400 23.98fps 873Kbps
Аудио: Dolby AC3 48000Hz stereo 224Kbps
MediaInfo
General
Complete name : D:\TORRENTS\Внеземной театр.avi
Format : AVI
Format/Info : Audio Video Interleave
File size : 617 MiB
Duration : 1h 17mn
Overall bit rate : 1 107 Kbps
Video
ID : 0
Format : MPEG-4 Visual
Format profile : Simple@L1
Format settings, BVOP : No
Format settings, QPel : No
Format settings, GMC : No warppoints
Format settings, Matrix : Default (H.263)
Codec ID : DX50
Codec ID/Hint : DivX 5
Duration : 1h 17mn
Bit rate : 873 Kbps
Width : 704 pixels
Height : 400 pixels
Display aspect ratio : 16:9
Frame rate : 23.976 fps
Color space : YUV
Chroma subsampling : 4:2:0
Bit depth : 8 bits
Scan type : Progressive
Compression mode : Lossy
Bits/(Pixel*Frame) : 0.129
Stream size : 487 MiB (79%)
Writing library : Lavc53.42.0
Audio
ID : 1
Format : AC-3
Format/Info : Audio Coding 3
Mode extension : CM (complete main)
Format settings, Endianness : Big
Codec ID : 2000
Duration : 1h 17mn
Source duration : 1h 17mn
Bit rate mode : Constant
Bit rate : 224 Kbps
Channel(s) : 2 channels
Channel positions : Front: L R
Sampling rate : 48.0 KHz
Bit depth : 16 bits
Compression mode : Lossy
Stream size : 125 MiB (20%)
Alignment : Aligned on interleaves
Interleave, duration : 42 ms (1.00 video frame)
Скриншот c названием фильма Скриншоты
Скачать

Скачать торрент!

Как скачивать? · Что такое торрент? · Рейтинг и ограничения

Сайт не распространяет и не хранит электронные версии произведений, а лишь предоставляет доступ к создаваемому пользователями каталогу ссылок на торрент-файлы, которые содержат только списки хеш-сумм

[Профиль] [ЛС]
Показать сообщения:    
Ответить на тему

Текущее время: Сегодня 07:50

Часовой пояс: GMT + 4



Вы не можете начинать темы
Вы не можете отвечать на сообщения
Вы не можете редактировать свои сообщения
Вы не можете удалять свои сообщения
Вы не можете голосовать в опросах
Вы не можете прикреплять файлы к сообщениям
Вы не можете скачивать файлы