Белый плен / Eight Below (Фрэнк Маршалл / Frank Marshall) [2006, США, драма, мелодрама, приключения, BDRip 1080p] Dub + AVO (Немахов) + Original (Eng) + Sub (Rus, Eng)

Ответить на тему
 
Автор Сообщение

user ®

Стаж: 7 лет 7 месяцев

Сообщений: 20008

Пост Пост: #1 от 02-Июл-2014 20:30

[Цитировать]

Белый плен / Eight Below
Страна: США
Студия: Walt Disney Pictures, Spyglass Entertainment, Mandeville Films
Жанр: драма, мелодрама, приключения
Год выпуска: 2006
Продолжительность: 02:00:25
Перевод 1: Профессиональный (дублированный) [BD CEE]
Перевод 2: Авторский (одноголосый закадровый) [Ю. Немахов]
Оригинальная аудиодорожка: английская
Cубтитры: русские (forced, full, 2x commentary), английские
Режиссер: Фрэнк Маршалл / Frank Marshall
В ролях: Пол Уокер, Брюс Гринвуд, Мун Бладгуд, Джейсон Биггс, Уэнди Крюсон, Жерар Планкетт, Аугуст Шелленберг, Белинда Мец, Коннор Кристофер Левинс, Дункан Фрэйзер, Дэн Зиски, Макйл Дэвид Симмс, Дэниэл Бэйкон, Лаара Сэдик, Малкольм Стюарт, Декстер Белл, Гэри Чок, Бренда Кемпбелл, Майкл Адамуэйт, Дэймон Джонсон, Ричард Сали, Пану, Бак
Описание: Фильм основан на реальных событиях. Антарктида. Падение метеорита. Научная экспедиция, в состав которой входят Джерри Шепард, его лучший друг Купер и геолог, отправляется на поиски метеорита... Но несмотря на зачин, это не фантастика. Это история восьми собак, которых люди вынуждены были оставить посреди льдов аж на шесть месяцев...

Релиз: fanatus
Качество видео: BDRip 1080p
Исходник: [url=http://***/forum/viewtopic.php?t=4652495]BDRemux 1080p[/url]
Контейнер: MKV
Видео: MPEG-4 AVC, 9600 Kbps, 1920x800 (2.40:1), 23.976 fps, 0.261 bit/pixel
Аудио 1: русский (AC3, 6 ch, 48 kHz, 640 kbps) Dub (BD CEE)
Аудио 2: русский (DTS, 6 ch, 48 kHz, 1510 kbps) AVO (Nemahov)
Аудио 3: английский (DTS, 6 ch, 48 kHz, 1510 kbps) Original
Аудио 4: английский (AC3, 2 ch, 48 kHz, 192 kbps) commentary (F. Marshall, P. Crowley)
Аудио 5: английский (AC3, 2 ch, 48 kHz, 192 kbps) commentary (F. Marshall, P. Walker)
Формат субтитров: softsub (SRT)
Главы: есть
MediaInfo
General
Unique ID : 220248101275529940243193761151702845285 (0xA5B23DC8BA0E21C6AF45D9252AF0C765)
Complete name : E:\Belyj_plen.2006.x264.BDRip.1080p.fanatus.mkv
Format : Matroska
Format version : Version 2
File size : 11.5 GiB
Duration : 2h 0mn
Overall bit rate : 13.6 Mbps
Movie name : Eight Below (2006) - fanatus
Encoded date : UTC 2014-06-27 14:18:09
Writing application : mkvmerge v3.4.0 ('Rapunzel') сборка от May 15 2010 09:38:20
Writing library : libebml v0.8.0 + libmatroska v0.9.0
Attachment : Yes
Video
ID : 1
Format : AVC
Format/Info : Advanced Video Codec
Format profile : High@L4.1
Format settings, CABAC : Yes
Format settings, ReFrames : 5 frames
Codec ID : V_MPEG4/ISO/AVC
Duration : 2h 0mn
Bit rate : 9 600 Kbps
Width : 1 920 pixels
Height : 800 pixels
Display aspect ratio : 2.40:1
Frame rate : 23.976 fps
Color space : YUV
Chroma subsampling : 4:2:0
Bit depth : 8 bits
Scan type : Progressive
Bits/(Pixel*Frame) : 0.261
Stream size : 7.84 GiB (68%)
Title : Eight Below (2006) BDRip(1080p)
Writing library : x264 core 142 r2431 ac76440
Encoding settings : cabac=1 / ref=5 / deblock=1:-3:-3 / analyse=0x3:0x133 / me=tesa / subme=11 / psy=1 / psy_rd=1.10:0.00 / mixed_ref=1 / me_range=64 / chroma_me=1 / trellis=2 / 8x8dct=1 / cqm=0 / deadzone=21,11 / fast_pskip=0 / chroma_qp_offset=-2 / threads=16 / lookahead_threads=4 / sliced_threads=0 / nr=0 / decimate=0 / interlaced=0 / bluray_compat=0 / constrained_intra=0 / bframes=10 / b_pyramid=2 / b_adapt=2 / b_bias=0 / direct=3 / weightb=1 / open_gop=0 / weightp=2 / keyint=240 / keyint_min=23 / scenecut=40 / intra_refresh=0 / rc=2pass / mbtree=0 / bitrate=9600 / ratetol=1.0 / qcomp=0.75 / qpmin=0 / qpmax=69 / qpstep=4 / cplxblur=20.0 / qblur=0.5 / ip_ratio=1.40 / pb_ratio=1.30 / aq=1:0.80
Language : English
Default : Yes
Forced : No
Audio #1
ID : 2
Format : AC-3
Format/Info : Audio Coding 3
Mode extension : CM (complete main)
Format settings, Endianness : Big
Codec ID : A_AC3
Duration : 2h 0mn
Bit rate mode : Constant
Bit rate : 640 Kbps
Channel(s) : 6 channels
Channel positions : Front: L C R, Side: L R, LFE
Sampling rate : 48.0 KHz
Bit depth : 16 bits
Compression mode : Lossy
Stream size : 552 MiB (5%)
Title : Dub (Blu-ray CEE)
Language : Russian
Default : Yes
Forced : No
Audio #2
ID : 3
Format : DTS
Format/Info : Digital Theater Systems
Codec ID : A_DTS
Duration : 2h 0mn
Bit rate mode : Constant
Bit rate : 1 510 Kbps
Channel(s) : 6 channels
Channel positions : Front: L C R, Side: L R, LFE
Sampling rate : 48.0 KHz
Bit depth : 16 bits
Compression mode : Lossy
Stream size : 1.27 GiB (11%)
Title : AVO (Nemahov)
Language : Russian
Default : No
Forced : No
Audio #3
ID : 4
Format : DTS
Format/Info : Digital Theater Systems
Codec ID : A_DTS
Duration : 2h 0mn
Bit rate mode : Constant
Bit rate : 1 510 Kbps
Channel(s) : 6 channels
Channel positions : Front: L C R, Side: L R, LFE
Sampling rate : 48.0 KHz
Bit depth : 16 bits
Compression mode : Lossy
Stream size : 1.27 GiB (11%)
Title : Original
Language : English
Default : No
Forced : No
Audio #4
ID : 5
Format : AC-3
Format/Info : Audio Coding 3
Format profile : Dolby Digital
Mode extension : CM (complete main)
Format settings, Endianness : Big
Codec ID : A_AC3
Duration : 2h 0mn
Bit rate mode : Constant
Bit rate : 192 Kbps
Channel(s) : 2 channels
Channel positions : Front: L R
Sampling rate : 48.0 KHz
Bit depth : 16 bits
Compression mode : Lossy
Stream size : 166 MiB (1%)
Title : comment (F. Marshal, P. Crowley)
Language : English
Default : No
Forced : No
Audio #5
ID : 6
Format : AC-3
Format/Info : Audio Coding 3
Format profile : Dolby Digital
Mode extension : CM (complete main)
Format settings, Endianness : Big
Codec ID : A_AC3
Duration : 2h 0mn
Bit rate mode : Constant
Bit rate : 192 Kbps
Channel(s) : 2 channels
Channel positions : Front: L R
Sampling rate : 48.0 KHz
Bit depth : 16 bits
Compression mode : Lossy
Stream size : 166 MiB (1%)
Title : comment (F. Marshal, P. Walker)
Language : English
Default : No
Forced : No
Text #1
ID : 7
Format : UTF-8
Codec ID : S_TEXT/UTF8
Codec ID/Info : UTF-8 Plain Text
Title : Forced
Language : Russian
Default : Yes
Forced : Yes
Text #2
ID : 8
Format : UTF-8
Codec ID : S_TEXT/UTF8
Codec ID/Info : UTF-8 Plain Text
Title : Full
Language : Russian
Default : No
Forced : No
Text #3
ID : 9
Format : UTF-8
Codec ID : S_TEXT/UTF8
Codec ID/Info : UTF-8 Plain Text
Title : Full
Language : English
Default : No
Forced : No
Text #4
ID : 10
Format : UTF-8
Codec ID : S_TEXT/UTF8
Codec ID/Info : UTF-8 Plain Text
Title : comment (F. Marshal, P. Crowley)
Language : Russian
Default : No
Forced : No
Text #5
ID : 11
Format : UTF-8
Codec ID : S_TEXT/UTF8
Codec ID/Info : UTF-8 Plain Text
Title : comment (F. Marshal, P. Walker)
Language : Russian
Default : No
Forced : No
Menu
00:00:00.000 : :Chapter 01
00:04:22.929 : :Chapter 02
00:14:58.439 : :Chapter 03
00:22:54.790 : :Chapter 04
00:30:10.767 : :Chapter 05
00:39:53.516 : :Chapter 06
00:54:29.140 : :Chapter 07
01:01:39.487 : :Chapter 08
01:07:02.560 : :Chapter 09
01:19:23.758 : :Chapter 10
01:28:35.226 : :Chapter 11
01:37:59.665 : :Chapter 12
01:43:03.051 : :Chapter 13
01:52:54.976 : :Chapter 14
02:00:23.632 : :Chapter 15
x264 [info]
---[Information] [24.06.2014 4:25:47] raw [info]: 1920x800p 1:1 @ 24000/1001 fps (cfr)
---[Information] [24.06.2014 4:25:47] x264 [info]: using SAR=1/1
---[Information] [24.06.2014 4:25:47] x264 [info]: using cpu capabilities: MMX2 SSE2Fast SSSE3 SSE4.2 AVX
---[Information] [24.06.2014 4:25:47] x264 [info]: profile High, level 4.1
---[Information] [27.06.2014 3:47:18] x264 [info]: frame I:1137 Avg QP:14.53 size:170926
---[Information] [27.06.2014 3:47:18] x264 [info]: frame P:38630 Avg QP:16.78 size: 87412
---[Information] [27.06.2014 3:47:18] x264 [info]: frame B:133450 Avg QP:18.63 size: 38172
---[Information] [27.06.2014 3:47:18] x264 [info]: consecutive B-frames: 2.5% 3.7% 13.2% 7.4% 4.9% 67.3% 0.5% 0.0% 0.1% 0.1% 0.3%
---[Information] [27.06.2014 3:47:18] x264 [info]: mb I I16..4: 3.4% 84.4% 12.2%
---[Information] [27.06.2014 3:47:18] x264 [info]: mb P I16..4: 0.6% 25.9% 1.3% P16..4: 25.0% 28.8% 10.6% 2.1% 0.1% skip: 5.6%
---[Information] [27.06.2014 3:47:18] x264 [info]: mb B I16..4: 0.1% 1.8% 0.1% B16..8: 34.1% 20.5% 3.6% direct:19.6% skip:20.1% L0:42.5% L1:44.8% BI:12.7%
---[Information] [27.06.2014 3:47:18] x264 [info]: 8x8 transform intra:92.2% inter:47.8%
---[Information] [27.06.2014 3:47:18] x264 [info]: direct mvs spatial:98.4% temporal:1.6%
---[Information] [27.06.2014 3:47:18] x264 [info]: coded y,uvDC,uvAC intra: 96.3% 76.2% 46.7% inter: 55.0% 23.2% 5.6%
---[Information] [27.06.2014 3:47:18] x264 [info]: i16 v,h,dc,p: 24% 13% 6% 56%
---[Information] [27.06.2014 3:47:18] x264 [info]: i8 v,h,dc,ddl,ddr,vr,hd,vl,hu: 9% 9% 11% 10% 12% 11% 11% 12% 14%
---[Information] [27.06.2014 3:47:18] x264 [info]: i4 v,h,dc,ddl,ddr,vr,hd,vl,hu: 11% 9% 10% 8% 14% 13% 13% 10% 13%
---[Information] [27.06.2014 3:47:18] x264 [info]: i8c dc,h,v,p: 38% 31% 18% 13%
---[Information] [27.06.2014 3:47:18] x264 [info]: Weighted P-Frames: Y:9.0% UV:4.8%
---[Information] [27.06.2014 3:47:18] x264 [info]: ref P L0: 53.4% 10.2% 20.6% 7.8% 6.6% 1.3% 0.1%
---[Information] [27.06.2014 3:47:18] x264 [info]: ref B L0: 83.8% 12.1% 3.4% 0.8%
---[Information] [27.06.2014 3:47:18] x264 [info]: ref B L1: 94.1% 5.9%
---[Information] [27.06.2014 3:47:18] x264 [info]: kb/s:9595.18
---[Information] [27.06.2014 3:47:18] encoded 173217 frames, 0.67 fps, 9595.18 kb/s
Скриншот c названием фильма Скриншоты Source vs Rip
Скачать

Скачать торрент!

Как скачивать? · Что такое торрент? · Рейтинг и ограничения

Сайт не распространяет и не хранит электронные версии произведений, а лишь предоставляет доступ к создаваемому пользователями каталогу ссылок на торрент-файлы, которые содержат только списки хеш-сумм

[Профиль] [ЛС]
Показать сообщения:    
Ответить на тему

Текущее время: Сегодня 08:39

Часовой пояс: GMT + 4



Вы не можете начинать темы
Вы не можете отвечать на сообщения
Вы не можете редактировать свои сообщения
Вы не можете удалять свои сообщения
Вы не можете голосовать в опросах
Вы не можете прикреплять файлы к сообщениям
Вы не можете скачивать файлы