Приятель / Buddy (Михаэль Хербиг / Michael Herbig) [2013, Германия, комедия, мелодрама, фэнтези, BDRip 720p] VO (Andi) + Sub Rus + Original Ger

Ответить на тему
 
Автор Сообщение

user ®

Стаж: 7 лет 7 месяцев

Сообщений: 20008

Пост Пост: #1 от 02-Июл-2014 20:30

[Цитировать]

Приятель / Buddy Страна: Германия
Жанр: комедия, мелодрама, фэнтези
Год выпуска: 2013
Продолжительность: 01:34:37

Перевод: Одноголосый закадровый Andi
Cубтитры: русские Михаил Васильев
Оригинальная аудиодорожка: немецкий
-Режиссер: Михаэль Хербиг / Michael Herbig
В ролях: Михаэль Хербиг, Александр Фелинг, Мина Тандер, Кристиан Беркель, Даниэль Цильман, Тим Вильде-Описание: Жизнь плейбоя и миллионера Эдди – одна бесконечная вечеринка. В пьяном угаре он не замечает, что бизнес давно идет ко дну, а сомнительные друзья просто пользуются его деньгами, а сами смеются над ним.
Однажды, вернувшись в свой роскошный пентхаус, Эдди обнаруживает там таинственного незнакомца. Тот заявляет, что он…Ангел, посланный свыше, дабы навести в жизни Эдди порядок. Ангел сделает все, чтобы перевоспитать Эдди. Даже если для этого ему понадобится разрушить его жизнь…
-Сэмпл: http://multi-up.com/983149-Выражаем благодарность:
Марии Игнатовой (группа "Новинки кино с русскими субтитрами" ВК) за предоставленный видео файл и немецкие титры
Благодарим фэн клуб Михаэля Хербига за поддержку данного релиза
-Тип релиза: BDRip 720p
Контейнер: MKV
Видео кодек: x264
Аудио кодек: DTS
Видео: 1280*536, 6793 Кбит/сек, 24 fps
Аудио: DTS, 1510 Кбит/сек,6ch., 48,0 КГц-русский
Аудио 2: DTS, 1510 Кбит/сек,6ch., 48,0 КГц-немецкий
MediaInfo
Общее
Уникальный идентификатор : 237059339918061417035061066972577051134 (0xB257F7D7A96672C79871F74E1A42B1FE)
Полное имя : L:\VO Andi\Buddy.2013.720p. VO Andi.mkv
Формат : Matroska
Версия формата : Version 2
Размер файла : 6,62 Гбайт
Продолжительность : 1 ч. 34 м.
Общий поток : 10,0 Мбит/сек
Дата кодирования : UTC 2014-06-28 05:11:51
Программа кодирования : mkvmerge v5.5.0 ('Healer') built on Apr 6 2012 21:43:24
Библиотека кодирования : libebml v1.2.3 + libmatroska v1.3.0
Видео
Идентификатор : 1
Формат : AVC
Формат/Информация : Advanced Video Codec
Профиль формата : High@L4.1
Параметр CABAC формата : Да
Параметр ReFrames формата : 8 кадров
Идентификатор кодека : V_MPEG4/ISO/AVC
Продолжительность : 1 ч. 34 м.
Битрейт : 6793 Кбит/сек
Ширина : 1280 пикселей
Высота : 536 пикселей
Соотношение сторон : 2,40:1
Режим частоты кадров : Постоянный
Частота кадров : 24,000 кадра/сек
Цветовое пространство : YUV
Субдискретизация насыщенности : 4:2:0
Битовая глубина : 8 бит
Тип развёртки : Прогрессивная
Бит/(Пиксели*Кадры) : 0.413
Размер потока : 4,49 Гбайт (68%)
Заголовок : Buddy (2013)
Библиотека кодирования : x264 core 142 r2431kMod ac76440
Настройки программы : cabac=1 / ref=8 / deblock=1:-3:-3 / analyse=0x3:0x133 / me=umh / subme=11 / psy=1 / fade_compensate=0.00 / psy_rd=1.05:0.00 / mixed_ref=1 / me_range=24 / chroma_me=1 / trellis=2 / 8x8dct=1 / cqm=0 / deadzone=21,11 / fast_pskip=0 / chroma_qp_offset=-2 / threads=12 / lookahead_threads=2 / sliced_threads=0 / nr=0 / decimate=0 / interlaced=0 / bluray_compat=0 / constrained_intra=0 / fgo=0 / bframes=8 / b_pyramid=2 / b_adapt=2 / b_bias=0 / direct=3 / weightb=1 / open_gop=0 / weightp=2 / keyint=240 / keyint_min=23 / scenecut=40 / intra_refresh=0 / rc_lookahead=60 / rc=crf / mbtree=0 / crf=16.0000 / qcomp=0.60 / qpmin=0 / qpmax=69 / qpstep=4 / vbv_maxrate=62500 / vbv_bufsize=78125 / crf_max=0.0 / nal_hrd=none / filler=0 / ip_ratio=1.30 / pb_ratio=1.20 / aq=3:0.80
Язык : German
Default : Да
Forced : Нет
Аудио #1
Идентификатор : 2
Формат : DTS
Формат/Информация : Digital Theater Systems
Режим : 16
Параметр Endianness формата : Big
Идентификатор кодека : A_DTS
Продолжительность : 1 ч. 34 м.
Вид битрейта : Постоянный
Битрейт : 1510 Кбит/сек
Каналы : 6 каналов
Расположение каналов : Front: L C R, Side: L R, LFE
Частота : 48,0 КГц
Битовая глубина : 16 бит
Метод сжатия : С потерями
Размер потока : 1022 Мбайт (15%)
Заголовок : Andi
Язык : Russian
Default : Да
Forced : Нет
Аудио #2
Идентификатор : 3
Формат : DTS
Формат/Информация : Digital Theater Systems
Режим : 16
Параметр Endianness формата : Big
Идентификатор кодека : A_DTS
Продолжительность : 1 ч. 34 м.
Вид битрейта : Постоянный
Битрейт : 1509 Кбит/сек
Каналы : 6 каналов
Расположение каналов : Front: L C R, Side: L R, LFE
Частота : 48,0 КГц
Битовая глубина : 24 бит
Метод сжатия : С потерями
Размер потока : 1021 Мбайт (15%)
Язык : German
Default : Нет
Forced : Нет
Текст #1
Идентификатор : 4
Формат : UTF-8
Идентификатор кодека : S_TEXT/UTF8
Идентификатор кодека/Информация : UTF-8 Plain Text
Язык : Russian
Default : Нет
Forced : Нет
Текст #2
Идентификатор : 5
Формат : UTF-8
Идентификатор кодека : S_TEXT/UTF8
Идентификатор кодека/Информация : UTF-8 Plain Text
Язык : German
Default : Нет
Forced : Нет
Скриншоты
Скачать

Скачать торрент!

Как скачивать? · Что такое торрент? · Рейтинг и ограничения

Сайт не распространяет и не хранит электронные версии произведений, а лишь предоставляет доступ к создаваемому пользователями каталогу ссылок на торрент-файлы, которые содержат только списки хеш-сумм

[Профиль] [ЛС]
Показать сообщения:    
Ответить на тему

Текущее время: Сегодня 18:18

Часовой пояс: GMT + 4



Вы не можете начинать темы
Вы не можете отвечать на сообщения
Вы не можете редактировать свои сообщения
Вы не можете удалять свои сообщения
Вы не можете голосовать в опросах
Вы не можете прикреплять файлы к сообщениям
Вы не можете скачивать файлы