Перекрестный огонь / Bad Country (Крис Бринкер / Chris Brinker) [2014, США, боевик, триллер, драма, криминал, детектив, BDRip 1080p] MVO + 3x Sub (Rus, Ukr, Eng) + Original Eng

Ответить на тему
 
Автор Сообщение

user ®

Стаж: 7 лет 7 месяцев

Сообщений: 20008

Пост Пост: #1 от 02-Июл-2014 20:30

[Цитировать]

Перекрестный огонь / Bad Country
Страна: США
Жанр: боевик, триллер, драма, криминал, детектив
Год выпуска: 2014
Продолжительность: 01:44:22
Перевод: Профессиональный (многоголосый закадровый)
Cубтитры: русские, украинские, английские [SDH]
Оригинальная аудиодорожка: английский
-
Режиссер: Крис Бринкер / Chris Brinker
В ролях: Мэтт Диллон, Уиллем Дефо, Нил МакДонаф, Эми Смарт, Крис Маркетт, Дон Йессо, Кевин Чэпмен, Билл Дьюк, Том Беренджер, Кристофер Денэм
-
Описание: Фильм снят по реальным событиям. Расследование детектива Бада Картера приводит к аресту Джесси Вейланда, наемного убийцы из преступного синдиката. Вейланд осознает, что попав в тюрьму, он потеряет свою семью, и решает довериться Картеру, став его информатором.

Тип релиза: BDRip 1080p
Контейнер: MKV
Видео: H264 / NTSC 16:9 / 1920x1080 (1,78:1) / 15015 kbps / 23,976 fps / 0.302 bit/pixel / High@L4.1
Аудио 1: Russian / AC3 / 48 kHz / 5.1 Ch / 384 kbps / 16 bit / MVO
Аудио 2: English / DTS / 48 kHz / 5.1 Ch / 1509 kbps / 16 bit / Original
Формат субтитров: softsub (SRT)
Навигация по главам: есть

Сэмпл MediaInfo
Общее
Уникальный идентификатор : 230019999098550674423429924810527269481 (0xAD0C3D8B533A053CBBF5413A8916E269)
Полное имя : F:\Bad Country.2014.BDRip.1080p.mkv
Формат : Matroska
Версия формата : Version 4 / Version 2
Размер файла : 12,3 Гбайт
Продолжительность : 1 ч. 44 м.
Общий поток : 16,9 Мбит/сек
Дата кодирования : UTC 2014-06-29 06:57:57
Программа кодирования : mkvmerge v7.0.0 ('Where We Going') 64bit built on Jun 9 2014 15:16:27
Библиотека кодирования : libebml v1.3.0 + libmatroska v1.4.1
_STATISTICS_WRITING_APP : mkvmerge v7.0.0 ('Where We Going') 64bit built on Jun 9 2014 15:16:27
_STATISTICS_WRITING_DATE_UTC : 2014-06-29 06:57:57
_STATISTICS_TAGS : BPS DURATION NUMBER_OF_FRAMES NUMBER_OF_BYTES
DURATION : 01:43:16.723000000
NUMBER_OF_FRAMES : 1356
NUMBER_OF_BYTES : 45169
Видео
Идентификатор : 1
Формат : AVC
Формат/Информация : Advanced Video Codec
Профиль формата : High@L4.1
Параметр CABAC формата : Да
Параметр ReFrames формата : 4 кадра
Идентификатор кодека : V_MPEG4/ISO/AVC
Продолжительность : 1 ч. 44 м.
Битрейт : 15,0 Мбит/сек
Ширина : 1920 пикселей
Высота : 1080 пикселей
Соотношение сторон : 16:9
Режим частоты кадров : Постоянный
Частота кадров : 23,976 кадра/сек
Цветовое пространство : YUV
Субдискретизация насыщенности : 4:2:0
Битовая глубина : 8 бит
Тип развёртки : Прогрессивная
Бит/(Пиксели*Кадры) : 0.302
Размер потока : 10,7 Гбайт (87%)
Библиотека кодирования : x264 core 140 r2377+40 929f149 tMod [8-bit@4:2:0 X86_64]
Настройки программы : cabac=1 / ref=4 / deblock=1:-3:-2 / analyse=0x3:0x113 / me=umh / subme=11 / psy=1 / fade_compensate=0.00 / psy_rd=1.00:0.00 / mixed_ref=1 / me_range=48 / chroma_me=1 / trellis=2 / 8x8dct=1 / cqm=0 / deadzone=21,11 / fast_pskip=0 / chroma_qp_offset=-2 / threads=18 / lookahead_threads=3 / sliced_threads=0 / nr=0 / decimate=0 / interlaced=0 / bluray_compat=0 / constrained_intra=0 / fgo=0 / bframes=8 / b_pyramid=2 / b_adapt=2 / b_bias=0 / direct=3 / weightb=1 / open_gop=0 / weightp=2 / keyint=240 / keyint_min=24 / scenecut=40 / intra_refresh=0 / rc=2pass / mbtree=0 / bitrate=15000 / ratetol=1.0 / qcomp=0.70 / qpmin=0:0:0 / qpmax=69:69:69 / qpstep=4 / cplxblur=20.0 / qblur=0.5 / ip_ratio=1.25 / pb_ratio=1.20 / aq=4:0.80 / aq-sensitivity=10.00 / aq-factor=1.00:1.00:1.00 / aq2=0 / aq3=0
Язык : English
Default : Да
Forced : Нет
_STATISTICS_WRITING_APP : mkvmerge v7.0.0 ('Where We Going') 64bit built on Jun 9 2014 15:16:27
_STATISTICS_WRITING_DATE_UTC : 2014-06-29 06:57:57
_STATISTICS_TAGS : BPS DURATION NUMBER_OF_FRAMES NUMBER_OF_BYTES
DURATION : 01:44:22.215000000
NUMBER_OF_FRAMES : 150143
NUMBER_OF_BYTES : 11753631171
Аудио #1
Идентификатор : 2
Формат : AC-3
Формат/Информация : Audio Coding 3
Расширение режима : CM (complete main)
Параметр Endianness формата : Big
Идентификатор кодека : A_AC3
Продолжительность : 1 ч. 44 м.
Вид битрейта : Постоянный
Битрейт : 384 Кбит/сек
Каналы : 6 каналов
Расположение каналов : Front: L C R, Side: L R, LFE
Частота : 48,0 КГц
Битовая глубина : 16 бит
Метод сжатия : С потерями
Размер потока : 287 Мбайт (2%)
Заголовок : MVO
Язык : Russian
Default : Да
Forced : Нет
Аудио #2
Идентификатор : 3
Формат : DTS
Формат/Информация : Digital Theater Systems
Режим : 16
Параметр Endianness формата : Big
Идентификатор кодека : A_DTS
Продолжительность : 1 ч. 44 м.
Вид битрейта : Постоянный
Битрейт : 1509 Кбит/сек
Каналы : 6 каналов
Расположение каналов : Front: L C R, Side: L R, LFE
Частота : 48,0 КГц
Битовая глубина : 16 бит
Метод сжатия : С потерями
Размер потока : 1,10 Гбайт (9%)
Заголовок : Original
Язык : English
Default : Нет
Forced : Нет
Текст #1
Идентификатор : 4
Формат : UTF-8
Идентификатор кодека : S_TEXT/UTF8
Идентификатор кодека/Информация : UTF-8 Plain Text
Заголовок : RUS
Язык : Russian
Default : Нет
Forced : Нет
Текст #2
Идентификатор : 5
Формат : UTF-8
Идентификатор кодека : S_TEXT/UTF8
Идентификатор кодека/Информация : UTF-8 Plain Text
Заголовок : UKR
Язык : Ukrainian
Default : Нет
Forced : Нет
Текст #3
Идентификатор : 6
Формат : UTF-8
Идентификатор кодека : S_TEXT/UTF8
Идентификатор кодека/Информация : UTF-8 Plain Text
Заголовок : Original / SDH
Язык : English
Default : Нет
Forced : Нет
Меню
00:00:00.000 : en:Chapter 1
00:07:08.219 : en:Chapter 2
00:12:23.492 : en:Chapter 3
00:17:26.045 : en:Chapter 4
00:25:57.806 : en:Chapter 5
00:30:56.062 : en:Chapter 6
00:39:20.649 : en:Chapter 7
00:46:28.285 : en:Chapter 8
00:53:10.562 : en:Chapter 9
00:58:37.805 : en:Chapter 10
01:02:19.152 : en:Chapter 11
01:09:40.593 : en:Chapter 12
01:16:09.773 : en:Chapter 13
01:21:41.104 : en:Chapter 14
01:27:55.812 : en:Chapter 15
01:35:38.858 : en:Chapter 16
Скриншоты
Скачать

Скачать торрент!

Как скачивать? · Что такое торрент? · Рейтинг и ограничения

Сайт не распространяет и не хранит электронные версии произведений, а лишь предоставляет доступ к создаваемому пользователями каталогу ссылок на торрент-файлы, которые содержат только списки хеш-сумм

[Профиль] [ЛС]
Показать сообщения:    
Ответить на тему

Текущее время: Сегодня 08:58

Часовой пояс: GMT + 4



Вы не можете начинать темы
Вы не можете отвечать на сообщения
Вы не можете редактировать свои сообщения
Вы не можете удалять свои сообщения
Вы не можете голосовать в опросах
Вы не можете прикреплять файлы к сообщениям
Вы не можете скачивать файлы