С чистого листа (Иван Криворучко) [2013, Россия, мелодрама, HDTVRip 720p]

Ответить на тему
 
Автор Сообщение

user ®

Стаж: 7 лет 7 месяцев

Сообщений: 20008

Пост Пост: #1 от 02-Июл-2014 14:55

[Цитировать]

С чистого листа
Страна: Россия
Студия: "Медиапрофсоюз"
Жанр: мелодрама
Год выпуска: 2013
Продолжительность: 01:38:25
Перевод: Не требуется
Cубтитры: нет
Режиссер: Иван Криворучко
В ролях: Светлана Смирнова-Марцинкевич, Тимофей Каратаев, Марта Голубева, Инна Коляда, Татьяна Бовкалова, Тамара Миронова, Елена Шабат, Андрей Кривецкий, Андрей Карако и др.
Описание: Аня Синицына живет в небольшом городке, работает продавцом в универмаге и не мечтает о большем. Когда-то она любила одаренного литературным талантом одноклассника Антона Кремнева, но он вздыхал только по первой красавице школы Лизе Федоровой, а после выпускных экзаменов вовсе исчез из виду. Жизнь Ани резко меняется после неожиданной встречи с первой любовью.
Сэмпл: http://multi-up.com/983270
Тип релиза: HDTVRip 720p
Контейнер: MKV
Видео: MPEG-4 AVC, 4485 kbps , 1280x720 (16:9), 25.000 fps, 0.195 Bits/(Pixel*Frame)
Аудио: AC3, 2 ch, 48 kHz, 192 kbps
MediaInfo
General
Unique ID : 243608254912542354979281820437686078534 (0xB7453E47D57AE60191C93149C1654C46)
Complete name : S chistogo lista_2013_HDTVRip720p.mkv
Format : Matroska
Format version : Version 4 / Version 2
File size : 3.28 GiB
Duration : 1h 38mn
Overall bit rate : 4 772 Kbps
Encoded date : UTC 2014-06-29 06:11:37
Writing application : mkvmerge v7.0.0 ('Where We Going') 32bit built on Jun 9 2014 15:08:34
Writing library : libebml v1.3.0 + libmatroska v1.4.1
DURATION : 01:38:25.472000000
NUMBER_OF_FRAMES : 184546
NUMBER_OF_BYTES : 141731328
_STATISTICS_WRITING_APP : mkvmerge v7.0.0 ('Where We Going') 32bit built on Jun 9 2014 15:08:34
_STATISTICS_WRITING_DATE_UTC : 2014-06-29 06:11:37
_STATISTICS_TAGS : BPS DURATION NUMBER_OF_FRAMES NUMBER_OF_BYTES
Video
ID : 1
Format : AVC
Format/Info : Advanced Video Codec
Format profile : High@L4.1
Format settings, CABAC : Yes
Format settings, ReFrames : 8 frames
Codec ID : V_MPEG4/ISO/AVC
Duration : 1h 38mn
Bit rate : 4 485 Kbps
Width : 1 280 pixels
Height : 720 pixels
Display aspect ratio : 16:9
Frame rate mode : Constant
Frame rate : 25.000 fps
Color space : YUV
Chroma subsampling : 4:2:0
Bit depth : 8 bits
Scan type : Progressive
Bits/(Pixel*Frame) : 0.195
Stream size : 3.08 GiB (94%)
Writing library : x264 core 138 r2358 9e941d1
Encoding settings : cabac=1 / ref=8 / deblock=1:-2:-2 / analyse=0x3:0x133 / me=umh / subme=10 / psy=1 / psy_rd=1.00:0.00 / mixed_ref=1 / me_range=32 / chroma_me=1 / trellis=2 / 8x8dct=1 / cqm=0 / deadzone=21,11 / fast_pskip=1 / chroma_qp_offset=-2 / threads=12 / lookahead_threads=2 / sliced_threads=0 / nr=0 / decimate=1 / interlaced=0 / bluray_compat=0 / constrained_intra=0 / bframes=8 / b_pyramid=2 / b_adapt=2 / b_bias=0 / direct=3 / weightb=1 / open_gop=0 / weightp=2 / keyint=250 / keyint_min=25 / scenecut=40 / intra_refresh=0 / rc_lookahead=60 / rc=crf / mbtree=1 / crf=16.5 / qcomp=0.60 / qpmin=10 / qpmax=51 / qpstep=4 / vbv_maxrate=62500 / vbv_bufsize=78125 / crf_max=0.0 / nal_hrd=none / ip_ratio=1.40 / aq=1:1.00
Language : Russian
Default : Yes
Forced : No
DURATION : 01:38:25.480000000
NUMBER_OF_FRAMES : 147637
NUMBER_OF_BYTES : 3379336508
_STATISTICS_WRITING_APP : mkvmerge v7.0.0 ('Where We Going') 32bit built on Jun 9 2014 15:08:34
_STATISTICS_WRITING_DATE_UTC : 2014-06-29 06:11:37
_STATISTICS_TAGS : BPS DURATION NUMBER_OF_FRAMES NUMBER_OF_BYTES
Audio
ID : 2
Format : AC-3
Format/Info : Audio Coding 3
Mode extension : CM (complete main)
Format settings, Endianness : Big
Codec ID : A_AC3
Duration : 1h 38mn
Bit rate mode : Constant
Bit rate : 192 Kbps
Channel(s) : 2 channels
Channel positions : Front: L R
Sampling rate : 48.0 KHz
Bit depth : 16 bits
Compression mode : Lossy
Stream size : 135 MiB (4%)
Language : Russian
Default : Yes
Forced : No
Скриншоты
Скачать

Скачать торрент!

Как скачивать? · Что такое торрент? · Рейтинг и ограничения

Сайт не распространяет и не хранит электронные версии произведений, а лишь предоставляет доступ к создаваемому пользователями каталогу ссылок на торрент-файлы, которые содержат только списки хеш-сумм

[Профиль] [ЛС]
Показать сообщения:    
Ответить на тему

Текущее время: Сегодня 16:25

Часовой пояс: GMT + 4



Вы не можете начинать темы
Вы не можете отвечать на сообщения
Вы не можете редактировать свои сообщения
Вы не можете удалять свои сообщения
Вы не можете голосовать в опросах
Вы не можете прикреплять файлы к сообщениям
Вы не можете скачивать файлы