Мешки для трупов / Body Bags (Джон Карпентер, Тоуб Хупер, Ларри Салкис) [1993, США, Ужасы, триллер, комедия, BDRip 720p] MVO (СТС) + Subs (rus, eng) + Original Eng

Ответить на тему
 
Автор Сообщение

user ®

Стаж: 7 лет 7 месяцев

Сообщений: 20008

Пост Пост: #1 от 02-Июл-2014 14:55

[Цитировать]

Мешки для трупов / Body Bags
Страна: США
Студия: Showtime Networks Inc.
Жанр: Ужасы, триллер, комедия
Год выпуска: 1993
Продолжительность: 01:34:22
Перевод: Профессиональный (многоголосый закадровый) СТС
Cубтитры: русские (forced), английские
Оригинальная аудиодорожка: английский
Режиссер: Джон Карпентер, Тоуб Хупер, Ларри Салкис
В ролях: Джон Карпентер, Том Арнольд, Тоуб Хупер, Роберт Кэрредин, Алекс Дэтчер, Питер Джейсон, Молли Чик, Уэс Крэйвен, Сэм Рэйми, Дэвид Нотон, Люси Бориер, Стейси Кич, Дэвид Уорнер, Шина Истон, Ким Алексис
Описание: Фильм мастеров жанра (Джона Карпентера и Тоуба Хупера) состоит их трех историй "Заправка", "Волосы" и "Глаз", которые объединяет одно - смерть. В первой новелле, «Бензоколонка», материализуются ужасы симпатичной афроамериканки, настоящей королевы автозаправки, заступившей на дежурство в ночную смену. Во второй новелле, «Волосы», стареющий жуир, озабоченный появлением лысины, получает столь радикальное средство для роста волос, что от ужаса волосы дыбом встают! В третьей новелле, с названием «Глаз» — попавшему в аварию бейсболисту вживляют глаз мертвеца, и он начинает видеть такое, что его настоящий глаз вовек не видывал…
Доп. информация: Версия выпущенная на ДВД урезана цензурой, поэтому не хватает около 5 мин перевода! На непереведенные места есть русские субтитры. Сохранены оригинальные чаптеры как на Blu-ray.
Рип от: CtrlHD
Сэмпл: http://multi-up.com/983248
Тип релиза: BDRip 720p
Контейнер: MKV
Видео: MPEG-4 AVC, 1280x720, 9192 Кбит/с, 23.976 кадр/с
Аудио#1: AC3, 2ch, 192 Кбит/с, 48.0 KHz (Русский)
Аудио#2: DTS, 6ch, 1510 Кбит/с, 48.0 KHz (Английский)
Формат субтитров: softsub (SRT)
MediaInfo
General
Unique ID : 175212149204449505844390065982539225914 (0x83D0A1EA08C505D993D725715086DB3A)
Complete name : C:UsersпкDesktopBody Bags (1993) BDRip (720p).mkv
Format : Matroska
Format version : Version 4 / Version 2
File size : 7.33 GiB
Duration : 1h 34mn
Overall bit rate : 11.1 Mbps
Encoded date : UTC 2014-06-29 05:23:09
Writing application : mkvmerge v7.0.0 ('Where We Going') 64bit built on Jun 9 2014 15:16:27
Writing library : libebml v1.3.0 + libmatroska v1.4.1
DURATION : 01:30:19.480000000
NUMBER_OF_FRAMES : 1029
NUMBER_OF_BYTES : 31538
_STATISTICS_WRITING_APP : mkvmerge v7.0.0 ('Where We Going') 64bit built on Jun 9 2014 15:16:27
_STATISTICS_WRITING_DATE_UTC : 2014-06-29 05:23:09
_STATISTICS_TAGS : BPS DURATION NUMBER_OF_FRAMES NUMBER_OF_BYTES
Video
ID : 1
Format : AVC
Format/Info : Advanced Video Codec
Format profile : High@L4.1
Format settings, CABAC : Yes
Format settings, ReFrames : 9 frames
Codec ID : V_MPEG4/ISO/AVC
Duration : 1h 34mn
Bit rate : 9 416 Kbps
Width : 1 280 pixels
Height : 720 pixels
Display aspect ratio : 16:9
Frame rate mode : Constant
Frame rate : 23.976 fps
Color space : YUV
Chroma subsampling : 4:2:0
Bit depth : 8 bits
Scan type : Progressive
Bits/(Pixel*Frame) : 0.426
Stream size : 6.06 GiB (83%)
Writing library : x264 core 133 r2334 a3ac64b
Encoding settings : cabac=1 / ref=9 / deblock=1:-3:-3 / analyse=0x3:0x113 / me=tesa / subme=11 / psy=1 / psy_rd=1.05:0.10 / mixed_ref=1 / me_range=24 / chroma_me=1 / trellis=2 / 8x8dct=1 / cqm=0 / deadzone=21,11 / fast_pskip=0 / chroma_qp_offset=-5 / threads=12 / lookahead_threads=2 / sliced_threads=0 / nr=0 / decimate=0 / interlaced=0 / bluray_compat=0 / constrained_intra=0 / bframes=8 / b_pyramid=2 / b_adapt=2 / b_bias=0 / direct=3 / weightb=1 / open_gop=0 / weightp=2 / keyint=250 / keyint_min=23 / scenecut=40 / intra_refresh=0 / rc_lookahead=200 / rc=2pass / mbtree=1 / bitrate=9416 / ratetol=1.0 / qcomp=0.90 / qpmin=0 / qpmax=69 / qpstep=4 / cplxblur=20.0 / qblur=0.5 / ip_ratio=1.20 / aq=1:0.85
Language : English
Default : Yes
Forced : No
DURATION : 01:34:22.657000000
NUMBER_OF_FRAMES : 135768
NUMBER_OF_BYTES : 6662374765
_STATISTICS_WRITING_APP : mkvmerge v7.0.0 ('Where We Going') 64bit built on Jun 9 2014 15:16:27
_STATISTICS_WRITING_DATE_UTC : 2014-06-29 05:23:09
_STATISTICS_TAGS : BPS DURATION NUMBER_OF_FRAMES NUMBER_OF_BYTES
Audio #1
ID : 2
Format : AC-3
Format/Info : Audio Coding 3
Mode extension : CM (complete main)
Format settings, Endianness : Big
Codec ID : A_AC3
Duration : 1h 34mn
Bit rate mode : Constant
Bit rate : 192 Kbps
Channel(s) : 2 channels
Channel positions : Front: L R
Sampling rate : 48.0 KHz
Bit depth : 16 bits
Compression mode : Lossy
Stream size : 130 MiB (2%)
Title : Многоголосый CTC
Language : Russian
Default : Yes
Forced : No
Audio #2
ID : 3
Format : DTS
Format/Info : Digital Theater Systems
Mode : 16
Format settings, Endianness : Big
Codec ID : A_DTS
Duration : 1h 34mn
Bit rate mode : Constant
Bit rate : 1 509 Kbps
Channel(s) : 6 channels
Channel positions : Front: L C R, Side: L R, LFE
Sampling rate : 48.0 KHz
Bit depth : 24 bits
Compression mode : Lossy
Stream size : 1 019 MiB (14%)
Title : Оригинал
Language : English
Default : No
Forced : No
Text #1
ID : 4
Format : UTF-8
Codec ID : S_TEXT/UTF8
Codec ID/Info : UTF-8 Plain Text
Language : Russian
Default : No
Forced : No
Text #2
ID : 5
Format : UTF-8
Codec ID : S_TEXT/UTF8
Codec ID/Info : UTF-8 Plain Text
Language : English
Default : No
Forced : No
Menu
00:00:00.000 : en:
00:06:14.999 : en:
00:13:45.825 : en:
00:20:36.235 : en:
00:26:40.223 : en:
00:33:11.990 : en:
00:42:14.532 : en:
00:48:26.904 : en:
00:55:14.311 : en:
01:04:37.874 : en:
01:13:12.012 : en:
01:23:52.652 : en:
01:31:34.113 : en:
Скриншоты
Скачать

Скачать торрент!

Как скачивать? · Что такое торрент? · Рейтинг и ограничения

Сайт не распространяет и не хранит электронные версии произведений, а лишь предоставляет доступ к создаваемому пользователями каталогу ссылок на торрент-файлы, которые содержат только списки хеш-сумм

[Профиль] [ЛС]
Показать сообщения:    
Ответить на тему

Текущее время: Сегодня 13:41

Часовой пояс: GMT + 4



Вы не можете начинать темы
Вы не можете отвечать на сообщения
Вы не можете редактировать свои сообщения
Вы не можете удалять свои сообщения
Вы не можете голосовать в опросах
Вы не можете прикреплять файлы к сообщениям
Вы не можете скачивать файлы