Нужные люди / People I Know (Дэниел Олгрант / Daniel Algrant) [2002, США, Германия, драма, криминал, BDRip 720p] 2xDVO + AVO (Визгунов) + Original eng + Sub rus, eng

Ответить на тему
 
Автор Сообщение

user ®

Стаж: 7 лет 7 месяцев

Сообщений: 20008

Пост Пост: #1 от 02-Июл-2014 14:55

[Цитировать]

Нужные люди / People I Know
Страна: США, Германия
Жанр: драма, криминал
Год выпуска: 2002
Продолжительность: 01:39:27
Перевод#1: Профессиональный (двухголосый закадровый) (Тарадайкин)
Перевод#2: Профессиональный (двухголосый закадровый)
Перевод#3: Авторский (одноголосый закадровый), С. Визгунов
Cубтитры: русские, английские
Оригинальная аудиодорожка: английский
Режиссер: Дэниел Олгрант / Daniel Algrant
В ролях: Аль Пачино, Ким Бэсинджер, Райан О`Нил, Теа Леони, Ричард Шифф, Билл Нанн, Роберт Клейн, Марк Веббер, Элдон Баллок, Джульетт Папа
Описание: Высший свет Нью-Йорка боится и боготворит вездесущего Илая Вэрмана. Этот бывалый знаток человеческой натуры легко сводит вместе нужных людей и мирит врагов с немалой выгодой для себя...

Исходник: People I Know 2002 1080p Blu-ray AVC DTS-HD MA 5.1
Тип релиза: BDRip 720p (от DON) | sample
Контейнер: MKV
Видео кодек: x264
Видео: AVC 1280x720 (16:9), 23.976 fps, ~8350 Kbps, 0.37 bit/pixel
Аудио #1: Russian AC3 6ch 48kHz 448Kbps | DVO#1
Аудио #2: Russian AC3 2ch 48kHz 192Kbps | DVO#2
Аудио #3: Russian AC3 2ch 48kHz 192Kbps | AVO Визгунов
Аудио #4: English DTS 6ch 48kHz 1510Kbps | Original
Формат субтитров: softsub (SRT)
Главы: есть

MediaInfo | x264
x264
profile High, level 4.1
x264 [info]: frame I:979 Avg QP:15.96 size:141838
x264 [info]: frame P:26498 Avg QP:17.60 size: 80257
x264 [info]: frame B:115598 Avg QP:19.70 size: 34345
x264 [info]: consecutive B-frames: 1.1% 0.8% 2.8% 8.0% 14.7% 63.4% 7.9% 1.4%
x264 [info]: kb/s:8359.77
General
Complete name : E:\...\People.I.Know.2002.720p.BluRay.x264.3xRus.Eng-DON.mkv
Format : Matroska
Format version : Version 2
File size : 7.44 GiB
Duration : 1h 39mn
Overall bit rate : 10.7 Mbps
Movie name : People.I.Know.2002.720p.BluRay.x264.3xRus.Eng-DON
Encoded date : UTC 2014-06-29 11:11:52
Writing application : mkvmerge v7.0.0 ('Where We Going') 64bit built on Jun 9 2014 15:16:27
Writing library : libebml v1.3.0 + libmatroska v1.4.1
Video
ID : 1
Format : AVC
Format/Info : Advanced Video Codec
Format profile : High@L4.1
Format settings, CABAC : Yes
Format settings, ReFrames : 9 frames
Codec ID : V_MPEG4/ISO/AVC
Duration : 1h 39mn
Bit rate : 8 149 Kbps
Width : 1 280 pixels
Height : 720 pixels
Display aspect ratio : 16:9
Frame rate mode : Constant
Frame rate : 23.976 fps
Color space : YUV
Chroma subsampling : 4:2:0
Bit depth : 8 bits
Scan type : Progressive
Bits/(Pixel*Frame) : 0.369
Stream size : 5.66 GiB (76%)
Title : People I Know (2002)
Writing library : x264 core 140 r2377 1ca7bb9
Encoding settings : cabac=1 / ref=9 / deblock=1:-3:-3 / analyse=0x3:0x133 / me=tesa / subme=10 / psy=1 / psy_rd=1.05:0.00 / mixed_ref=1 / me_range=32 / chroma_me=1 / trellis=2 / 8x8dct=1 / cqm=0 / deadzone=21,11 / fast_pskip=0 / chroma_qp_offset=-2 / threads=12 / lookahead_threads=2 / sliced_threads=0 / nr=0 / decimate=1 / interlaced=0 / bluray_compat=0 / constrained_intra=0 / bframes=7 / b_pyramid=2 / b_adapt=2 / b_bias=0 / direct=3 / weightb=1 / open_gop=0 / weightp=2 / keyint=241 / keyint_min=23 / scenecut=40 / intra_refresh=0 / rc_lookahead=60 / rc=crf / mbtree=0 / crf=17.3 / qcomp=0.75 / qpmin=0 / qpmax=69 / qpstep=4 / vbv_maxrate=50000 / vbv_bufsize=62500 / crf_max=0.0 / nal_hrd=none / filler=0 / ip_ratio=1.40 / pb_ratio=1.30 / aq=1:0.70 / zones=136910,143074,q=26
Language : English
Default : Yes
Forced : No
Audio #1
ID : 2
Format : AC-3
Format/Info : Audio Coding 3
Mode extension : CM (complete main)
Format settings, Endianness : Big
Codec ID : A_AC3
Duration : 1h 39mn
Bit rate mode : Constant
Bit rate : 448 Kbps
Channel(s) : 6 channels
Channel positions : Front: L C R, Side: L R, LFE
Sampling rate : 48.0 KHz
Bit depth : 16 bits
Compression mode : Lossy
Stream size : 319 MiB (4%)
Title : DVO#1
Language : Russian
Default : Yes
Forced : No
Audio #2
ID : 3
Format : AC-3
Format/Info : Audio Coding 3
Mode extension : CM (complete main)
Format settings, Endianness : Big
Codec ID : A_AC3
Duration : 1h 39mn
Bit rate mode : Constant
Bit rate : 192 Kbps
Channel(s) : 2 channels
Channel positions : Front: L R
Sampling rate : 48.0 KHz
Bit depth : 16 bits
Compression mode : Lossy
Stream size : 137 MiB (2%)
Title : DVO#2
Language : Russian
Default : No
Forced : No
Audio #3
ID : 4
Format : AC-3
Format/Info : Audio Coding 3
Mode extension : CM (complete main)
Format settings, Endianness : Big
Codec ID : A_AC3
Duration : 1h 39mn
Bit rate mode : Constant
Bit rate : 192 Kbps
Channel(s) : 2 channels
Channel positions : Front: L R
Sampling rate : 48.0 KHz
Bit depth : 16 bits
Compression mode : Lossy
Stream size : 137 MiB (2%)
Title : AVO Vizgunov
Language : Russian
Default : No
Forced : No
Audio #4
ID : 5
Format : DTS
Format/Info : Digital Theater Systems
Codec ID : A_DTS
Duration : 1h 39mn
Bit rate mode : Constant
Bit rate : 1 510 Kbps
Channel(s) : 6 channels
Channel positions : Front: L C R, Side: L R, LFE
Sampling rate : 48.0 KHz
Bit depth : 24 bits
Compression mode : Lossy
Stream size : 1.05 GiB (14%)
Title : Original
Language : English
Default : No
Forced : No
Text #1
ID : 6
Format : UTF-8
Codec ID : S_TEXT/UTF8
Codec ID/Info : UTF-8 Plain Text
Language : Russian
Default : No
Forced : No
Text #2
ID : 7
Format : UTF-8
Codec ID : S_TEXT/UTF8
Codec ID/Info : UTF-8 Plain Text
Language : English
Default : No
Forced : No
Menu
00:00:00.000 : en:00:00:00.000
00:04:27.392 : en:00:04:27.392
00:13:25.138 : en:00:13:25.138
00:20:39.822 : en:00:20:39.822
00:29:22.678 : en:00:29:22.678
00:39:50.096 : en:00:39:50.096
00:47:11.412 : en:00:47:11.412
00:54:30.726 : en:00:54:30.726
01:02:37.921 : en:01:02:37.921
01:12:20.378 : en:01:12:20.378
01:22:30.821 : en:01:22:30.821
01:35:10.288 : en:01:35:10.288
Скриншоты
Скачать

Скачать торрент!

Как скачивать? · Что такое торрент? · Рейтинг и ограничения

Сайт не распространяет и не хранит электронные версии произведений, а лишь предоставляет доступ к создаваемому пользователями каталогу ссылок на торрент-файлы, которые содержат только списки хеш-сумм

[Профиль] [ЛС]
Показать сообщения:    
Ответить на тему

Текущее время: Сегодня 08:38

Часовой пояс: GMT + 4



Вы не можете начинать темы
Вы не можете отвечать на сообщения
Вы не можете редактировать свои сообщения
Вы не можете удалять свои сообщения
Вы не можете голосовать в опросах
Вы не можете прикреплять файлы к сообщениям
Вы не можете скачивать файлы