Волнение сердца / Мое сердце очень сильно забилось / Gunde Jaari Gallanthayyinde (Виджай Кумар Конда / Vijay Kumar Konda) [2013, Индия, романтическая комедия, HDRip] MVO (Red Media)

Ответить на тему
 
Автор Сообщение

user ®

Стаж: 12 лет

Сообщений: 15092

Пост Пост: #1 от 02-Июл-2014 11:45

[Цитировать]

Волнение сердца / Gunde Jaari Gallanthayyinde
-Страна: Индия
Жанр: романтическая комедия
Год выпуска: 2013
Продолжительность: 02:32:45-Перевод: Профессиональный (многоголосый закадровый) - Red Media [Индия ТВ]
Субтитры: Нет--Режиссер: Виджай Кумар Конда / Vijay Kumar Konda-В ролях: Нитин, Нитья Менен, Иша Талвар, Мадхунандам, Али, Ахути Прасад-Описание: Бывает ли любовь с первого взгляда? Картик (Нитин) поначалу скептически относился к этому, а тут вдруг раз, и... Незнакомка ушла, осталось лишь фото на мобильном телефоне. А что делать, когда просишь друзей оказать услугу – найти телефон прекрасной незнакомки, а друзья по пьяни путают цифры телефонного номера? И тогда влюбленный парень начинает через звонки кадрить девушку, которая на самом деле не имеет к нему никакого отношения. Теперь посмотрим с другой стороны: что делать Шравани (Нитья Менен), когда ей на телефон звонит незнакомый парень и очень сильно хочет стать другом, при этом он согласен ничего о ней не знать и не встречаться? Она согласилась, и очень скоро сердце ее затрепетало от предчувствия, что она нашла своего идеального парня. Телефонный роман – разве такое возможно? В принципе да. Но уж коли он начался с путаницы, то и финал у него сложно предугадать. (c) krutoy uoker-- | --Качество видео: HDRip
Формат видео: AVI-Видео: 672x288 (2.33:1), 24.000 fps, XviD build 50 ~1225 kbps avg, 0.26 bit/pixel
Аудио: 48 kHz, MPEG Layer 3, 2 ch, ~128.00 kbps-Сэмпл / Sample
-
Риппер, сведение звука: soso4eg-- -
-
Скриншот с названием:
-
Скриншоты
-
MI
-Общее
Полное имя : E:\[ИНДИЯ]\[Релизы]\Volnenie.Serdca.2013.HDRip.XviD-soso4eg.avi
Формат : AVI
Формат/Информация : Audio Video Interleave
Размер файла : 1,45 Гбайт
Продолжительность : 2 ч. 32 м.
Общий поток : 1363 Кбит/сек
Название фильма : Volnenie.Serdca.2013.HDRip.XviD-soso4eg
Режиссёр : soso4eg
Программа кодирования : VirtualDubMod 1.6.0.0 SURROUND (build 2560/release)
Формат оригинала/Имя : Movie
Правообладатель : специально для BitTorrent трекер *** (ex torrents.ru)
Примечание : пер. Red Media
Видео
Идентификатор : 0
Формат : MPEG-4 Visual
Профиль формата : Advanced Simple@L5
Параметр BVOP формата : 1
Параметр QPel формата : Нет
Параметр GMC формата : Без точки перехода
Параметр матрицы формата : Default (H.263)
Идентификатор кодека : XVID
Идентификатор кодека/Подсказка : XviD
Продолжительность : 2 ч. 32 м.
Битрейт : 1226 Кбит/сек
Ширина : 672 пикселя
Высота : 288 пикселей
Соотношение сторон : 2,35:1
Частота кадров : 24,000 кадра/сек
Цветовое пространство : YUV
Субдискретизация насыщенности : 4:2:0
Битовая глубина : 8 бит
Тип развёртки : Прогрессивная
Метод сжатия : С потерями
Бит/(Пиксели*Кадры) : 0.264
Размер потока : 1,31 Гбайт (90%)
Библиотека кодирования : XviD 1.2.1 (UTC 2008-12-04)
Аудио
Идентификатор : 1
Формат : MPEG Audio
Версия формата : Version 1
Профиль формата : Layer 3
Режим : Joint stereo
Расширение режима : MS Stereo
Идентификатор кодека : 55
Идентификатор кодека/Подсказка : MP3
Продолжительность : 2 ч. 32 м.
Вид битрейта : Постоянный
Битрейт : 128 Кбит/сек
Каналы : 2 канала
Частота : 48,0 КГц
Метод сжатия : С потерями
Размер потока : 140 Мбайт (9%)
Выравнивание : Соединение по промежуткам
Продолжительность промежутка : 42 мс. (1,00 видеокадр)
Время предзагрузки промежутка : 504 мс.

-
-
Скачать

Скачать торрент! Волнение сердца / Мое сердце очень сильно забилось / Gunde Jaari Gallanthayyinde (Виджай Кумар Конда / Vijay Kumar Konda) [2013, Индия, романтическая комедия, HDRip] MVO (Red Media)

Как скачивать? · Что такое торрент? · Рейтинг и ограничения

Сайт не распространяет и не хранит электронные версии произведений, а лишь предоставляет доступ к создаваемому пользователями каталогу ссылок на торрент-файлы, которые содержат только списки хеш-сумм

[Профиль] [ЛС]
Показать сообщения:    
Ответить на тему

Текущее время: Сегодня 17:53

Часовой пояс: GMT + 4



Вы не можете начинать темы
Вы не можете отвечать на сообщения
Вы не можете редактировать свои сообщения
Вы не можете удалять свои сообщения
Вы не можете голосовать в опросах
Вы не можете прикреплять файлы к сообщениям
Вы не можете скачивать файлы