Настоящая любовь (Сергей Попов) [2012, Россия, комедия, мелодрама, HDTVRip]

Ответить на тему
 
Автор Сообщение

user ®

Стаж: 7 лет 7 месяцев

Сообщений: 20008

Пост Пост: #1 от 02-Июл-2014 11:45

[Цитировать]

Настоящая любовь
Год выпуска: 2012
Страна: Россия
Жанр: комедия, мелодрама
Продолжительность: 01:33:42
Перевод: Не требуется
Субтитры: нет
Режиссер: Сергей Попов
В ролях: Кристина Асмус (Лена Антонова), Илья Носков (Андрей Лабутин), Ольга Тумайкина, Анна Ардова, Анна Уколова, Даша Чаруша, Алексей Гришин, Виталий Хаев, Тимофей Трибунцев, Артур Ваха, Елена Галибина, Марина Барсукова (Мила)-Мировая премьера: 1 декабря 2012-Описание: Состоятельный адвокат Андрей и начинающая журналистка Лена - каждый по-своему несчастлив в личной жизни. Разведенный Андрей инкогнито ищет настоящую любовь, переодеваясь в нищего, потому что убежден: деньги портят чувства.
А Лена тем временем полностью разочаровалась в мужчинах. Теперь ее цель - получить хорошую работу в газете, и в поисках сенсации она решает вывести на чистую воду брачных аферистов. Но, как говорится, любовь нечаянно нагрянет...
-[/url]Рейтинг
kinopoisk.ru: 5.618 (449)
-Качество: HDTVRip
Формат: AVI //SAMPLE//
Видео: 704x400 (1.76:1), 25 fps, XviD build 65 ~2025 kbps avg, 0.29 bit/pixel
Аудио: 48 kHz, AC3 Dolby Digital, 2/0 (L,R) ch, ~192 kbps

MediaInfo
Общее
Полное имя : F:\Video\AVI\Films\Nastojashhaja.Ljubov.2012.RUS.HDTVRip.XviD.AC3.AllFilms.avi
Формат : AVI
Формат/Информация : Audio Video Interleave
Размер файла : 1,46 Гбайт
Продолжительность : 1 ч. 33 м.
Общий поток : 2228 Кбит/сек
Название фильма : Настоящая любовь (2012)
Режиссёр : Shevon (HDTV 1080i)
Программа кодирования : VirtualDubMod 1.5.10.3 | www.virtualdub-fr.org || (build 2550/release)
Правообладатель : AllFilms
Видео
Идентификатор : 0
Формат : MPEG-4 Visual
Профиль формата : Advanced Simple@L5
Параметр BVOP формата : 1
Параметр QPel формата : Нет
Параметр GMC формата : Без точки перехода
Параметр матрицы формата : Выборочная
Идентификатор кодека : XVID
Идентификатор кодека/Подсказка : XviD
Продолжительность : 1 ч. 33 м.
Битрейт : 2026 Кбит/сек
Ширина : 704 пикселя
Высота : 400 пикселей
Соотношение сторон : 16:9
Частота кадров : 25,000 кадров/сек
Цветовое пространство : YUV
Субдискретизация насыщенности : 4:2:0
Битовая глубина : 8 бит
Тип развёртки : Прогрессивная
Метод сжатия : С потерями
Бит/(Пиксели*Кадры) : 0.288
Размер потока : 1,33 Гбайт (91%)
Библиотека кодирования : XviD 65
Аудио
Идентификатор : 1
Формат : AC-3
Формат/Информация : Audio Coding 3
Расширение режима : CM (complete main)
Параметр Endianness формата : Big
Идентификатор кодека : 2000
Продолжительность : 1 ч. 33 м.
Вид битрейта : Постоянный
Битрейт : 192 Кбит/сек
Каналы : 2 канала
Расположение каналов : Front: L R
Частота : 48,0 КГц
Битовая глубина : 16 бит
Метод сжатия : С потерями
Размер потока : 129 Мбайт (9%)
Выравнивание : Разделение по промежуткам
Продолжительность промежутка : 40 мс. (1,00 видеокадр)
Время предзагрузки промежутка : 500 мс.
Скриншоты -
Скачать

Скачать торрент!

Как скачивать? · Что такое торрент? · Рейтинг и ограничения

Сайт не распространяет и не хранит электронные версии произведений, а лишь предоставляет доступ к создаваемому пользователями каталогу ссылок на торрент-файлы, которые содержат только списки хеш-сумм

[Профиль] [ЛС]
Показать сообщения:    
Ответить на тему

Текущее время: Сегодня 00:09

Часовой пояс: GMT + 4



Вы не можете начинать темы
Вы не можете отвечать на сообщения
Вы не можете редактировать свои сообщения
Вы не можете удалять свои сообщения
Вы не можете голосовать в опросах
Вы не можете прикреплять файлы к сообщениям
Вы не можете скачивать файлы