Ледяная комета / Bing Fung: Chung Sang Chi Mun (Винг-Чеонг Лау / Wing-cheong Law) [2014, Китай, Гонконг, фантастика, боевик, комедия, история, HDRip] DVO

Ответить на тему
 
Автор Сообщение

user ®

Стаж: 11 лет

Сообщений: 15151

Пост Пост: #1 от 01-Июл-2014 17:45

[Цитировать]

Ледяная комета 3D / Bing Fung: Chung Sang Chi Mun
Страна: Китай, Гонконг
Жанр: фантастика, боевик, комедия, история
Год выпуска: 2014
Продолжительность: 01:44:13
Перевод: Любительский (двухголосый закадровый) Франк Цветков и Елена Егорова
Cубтитры: нет
Оригинальная аудиодорожка: нет
Режиссер: Винг-Чеонг Лау / Wing-cheong Law
В ролях: Донни Ен, Ван Баоцян, Ева Хуан, Юй Кан, Саймон Ям, Хой-Панг Ло, Сует Лам, Сингх Хартихан Битто, Хо-Ман Чан, Сиу Ва Чан
Описание: Капитана императорской гвардии времён династии Мин ошибочно обвиняют в убийстве и в сговоре с врагом, его бывшие товарищи гвардейцы отправляются за ним в погоню. Но их битва заканчивается тем, что все трое оказываются погребёнными на 300 лет под снегом сошедшей лавины.
Замороженных солдат, найденных филантропом-богачом, отправляют обратно в Гонконг для изучения, но те оттаивают и сбегают.
В ночь на Хэллоуин беглец находит убежище у выпившей и эмоционально истощённой барменши, и постепенно она помогает ему влиться в общество 21-го века.
Тем временем, у остальных гвардейцев свои планы: один до сих пор хочет выследить беглеца и придать его правосудию, а другой решает заработать себе имя в современном Гонконге.
Сэмпл: http://multi-up.com/983656
Качество видео: HDRip
Формат видео: AVI
Видео: 640x280 (2.29:1), 23.976 fps, XviD build 50 ~802 kbps avg, 0.19 bit/pixel
Аудио: 48 kHz, MPEG Layer 3, 2 ch, ~128.00 kbps avg
MediaInfo
General
Complete name : D:\The.Iceman.2014.HDRip.avi
Format : AVI
Format/Info : Audio Video Interleave
File size : 701 MiB
Duration : 1h 44mn
Overall bit rate : 940 Kbps
Writing application : VirtualDubMod 1.5.10.3 | www.virtualdub-fr.org || (build 2550/release)
Writing library : VirtualDubMod build 2550/release
Video
ID : 0
Format : MPEG-4 Visual
Format profile : Advanced Simple@L5
Format settings, BVOP : Yes
Format settings, QPel : No
Format settings, GMC : No warppoints
Format settings, Matrix : Default (MPEG)
Codec ID : DX50
Codec ID/Hint : DivX 5
Duration : 1h 44mn
Bit rate : 803 Kbps
Width : 640 pixels
Height : 280 pixels
Display aspect ratio : 2.25:1
Frame rate : 23.976 fps
Color space : YUV
Chroma subsampling : 4:2:0
Bit depth : 8 bits
Scan type : Progressive
Compression mode : Lossy
Bits/(Pixel*Frame) : 0.187
Stream size : 599 MiB (85%)
Writing library : XviD 1.2.1 (UTC 2008-12-04)
Audio
ID : 1
Format : MPEG Audio
Format version : Version 1
Format profile : Layer 3
Codec ID : 55
Codec ID/Hint : MP3
Duration : 1h 44mn
Bit rate mode : Constant
Bit rate : 128 Kbps
Channel count : 2 channels
Sampling rate : 48.0 KHz
Compression mode : Lossy
Stream size : 95.4 MiB (14%)
Alignment : Aligned on interleaves
Interleave, duration : 42 ms (1.00 video frame)
Interleave, preload duration : 504 ms
Writing library : LAME3.99r
Encoding settings : -m s -V 4 -q 2 -lowpass 17 -b 128
Скриншот c названием фильма Скриншоты
Скачать

Скачать торрент! Ледяная комета / Bing Fung: Chung Sang Chi Mun (Винг-Чеонг Лау / Wing-cheong Law) [2014, Китай, Гонконг, фантастика, боевик, комедия, история, HDRip] DVO

Как скачивать? · Что такое торрент? · Рейтинг и ограничения

Сайт не распространяет и не хранит электронные версии произведений, а лишь предоставляет доступ к создаваемому пользователями каталогу ссылок на торрент-файлы, которые содержат только списки хеш-сумм

[Профиль] [ЛС]
Показать сообщения:    
Ответить на тему

Текущее время: Сегодня 01:44

Часовой пояс: GMT + 4



Вы не можете начинать темы
Вы не можете отвечать на сообщения
Вы не можете редактировать свои сообщения
Вы не можете удалять свои сообщения
Вы не можете голосовать в опросах
Вы не можете прикреплять файлы к сообщениям
Вы не можете скачивать файлы