Война храма Шаолинь / War Of The Shaolin Temple (Дэвид Линь / David Lin) [1980, Тайвань, боевые искусства, DVDRip] VO (Виктор Береговых)

Ответить на тему
 
Автор Сообщение

user ®

Стаж: 11 лет

Сообщений: 15151

Пост Пост: #1 от 30-Июн-2014 23:40

[Цитировать]

Война храма Шаолинь / War Of The Shaolin Temple
Страна: Тайвань
Жанр: боевые искусства
Год выпуска: 1980
Продолжительность: 01:31:30
Перевод: Одноголосый закадровый (Виктор Береговых)
Cубтитры: нет
Режиссер: Дэвид Линь / David Lin
В ролях: Марк Лун, Алан Чуй, Шум Хой Юн, Рики Чен, Чиан Шен, Чай Кай, Чан Чи Пин
Описание: Китай,12 век,на Сунскую империю напали войска чжурчжэней - обитатели маньчжурской тайги, недавно основавшие империю Цзинь.Генерал чжурчжэней Чу Мен предлагает настоятелю храма Шаолинь перейти на их сторону.Настоятель отказывается, мотивируя это тем,что монахи тренируют тело и разум и их не интересуют мирские дела, в том числе и война.В это же время один из солдат Сун, воин Вань, крадет у чжурчжэней нефритовую печать императора Сун,которую сами чжурчжэни недавно похитили у Сун вместе с императором.Раненый Вань попадает в Шаолинь и монахи заботятся о нем,но когда тот выздоравливает просят его уйти.Вань понимает,что единственный способ поквитаться с врагами - это изучить кунг-фу,а для того чтобы изучить кунг-фу,нужно стать монахом и тогда Вань принимает решение стать монахом.Генерал Чу Мен тоже не дремлет.Он решает уничтожить храм Шаолинь...(В.Береговых)
Сэмпл: https://www.sendspace.com/file/2wpyku
Качество видео: DVDRip
Формат видео: AVI
Видео: XviD, 720x432 (1.667:1), 25.000 fps, 1938 kbps avg, 0.249 bit/pixel
Аудио: AC3, 48.0 KHz, 192 Kbps, 2 channels
Релиз форума Tavernaclub
MediaInfo
General
Complete name : C:\Война храма Шаолинь\Война храма Шаолинь.avi
Format : AVI
Format/Info : Audio Video Interleave
File size : 1.37 GiB
Duration : 1h 31mn
Overall bit rate : 2 137 Kbps
Writing application : VirtualDubMod 1.5.4.1 (build 2178/release)
Writing library : VirtualDubMod build 2178/release
Video
ID : 0
Format : MPEG-4 Visual
Format profile : AdvancedSimple@L5
Format settings, BVOP : Yes
Format settings, QPel : No
Format settings, GMC : No warppoints
Format settings, Matrix : Custom
Codec ID : XVID
Codec ID/Hint : XviD
Duration : 1h 31mn
Bit rate : 1 938 Kbps
Width : 720 pixels
Height : 432 pixels
Display aspect ratio : 1.667
Frame rate : 25.000 fps
Resolution : 24 bits
Colorimetry : 4:2:0
Scan type : Progressive
Bits/(Pixel*Frame) : 0.249
Stream size : 1.24 GiB (91%)
Writing library : XviD 1.2.0.dev47 (UTC 2006-11-01)
Audio
ID : 1
Format : AC-3
Format/Info : Audio Coding 3
Codec ID : 2000
Duration : 1h 31mn
Bit rate mode : Constant
Bit rate : 192 Kbps
Channel(s) : 2 channels
Channel positions : L R
Sampling rate : 48.0 KHz
Stream size : 126 MiB (9%)
Alignment : Split accross interleaves
Interleave, duration : 96 ms (2.40 video frames)
Interleave, preload duration : 96 ms
Language : Russian
Скриншот c названием фильма Скриншоты
Скачать

Скачать торрент! Война храма Шаолинь / War Of The Shaolin Temple (Дэвид Линь / David Lin) [1980, Тайвань, боевые искусства, DVDRip] VO (Виктор Береговых)

Как скачивать? · Что такое торрент? · Рейтинг и ограничения

Сайт не распространяет и не хранит электронные версии произведений, а лишь предоставляет доступ к создаваемому пользователями каталогу ссылок на торрент-файлы, которые содержат только списки хеш-сумм

[Профиль] [ЛС]
Показать сообщения:    
Ответить на тему

Текущее время: Сегодня 04:05

Часовой пояс: GMT + 4



Вы не можете начинать темы
Вы не можете отвечать на сообщения
Вы не можете редактировать свои сообщения
Вы не можете удалять свои сообщения
Вы не можете голосовать в опросах
Вы не можете прикреплять файлы к сообщениям
Вы не можете скачивать файлы