Однажды во Вьетнаме / Once Upon a Time in Vietnam (Дастин Нгуен / Dustin Nguyen) [2013, Вьетнам, боевик, HDRip] VO (xixidok)

Ответить на тему
 
Автор Сообщение

user ®

Стаж: 13 лет

Сообщений: 15071

Пост Пост: #1 от 30-Июн-2014 08:45

[Цитировать]

Однажды во Вьетнаме / Once Upon a Time in Vietnam
Страна: Вьетнам
Жанр: боевик
Год выпуска: 2013
Продолжительность: 01:46:50
Перевод: Одноголосый закадровый xixidok
Cубтитры: английские (хардсаб)
Режиссер: Дастин Нгуен / Dustin Nguyen
В ролях: Дастин Нгуен, Тан Ван Нго, Роджер Йуан, Таи Хоа, Нгок Дип, Хью Хиен, Фи Тань Ван, Ван Хай Буи, Джейсон Нинх Као, Нгуйен Хау
Описание: Воин-монах Мастер Дао посвятил свою жизнь защите своей страны от врагов. Исполняя приказ императора, он отправляется на поиски дезертиров, которые предпочли мирную жизнь военной службе. Ему предстоит также найти женщину, служившую когда-то в императорской армии, и с которой его связывают личные чувства. Это было давным-давно…
Релиз группы:
Сэмпл: http://multi-up.com/983404
Качество видео: HDRip (BDRip 1080p)
Формат видео: AVI
Видео: XviD, 839 kbps, 656 х 272 pixels, 24.000 fps
Аудио: MP3, 128 Kbps, 2 channels, 48.0 KHz
IMDb: 5.90 (149)
MediaInfo
General
Complete name : D:\kirovtorrent\Once.Upon.A.Time.In.Vietnam.2013.HDRip.745Mb.avi
Format : AVI
Format/Info : Audio Video Interleave
File size : 746 MiB
Duration : 1h 46mn
Overall bit rate : 976 Kbps
Writing application : VirtualDubMod 1.5.10.3 | www.virtualdub-fr.org || (build 2550/release)
Writing library : VirtualDubMod build 2550/release
Video
ID : 0
Format : MPEG-4 Visual
Format profile : Advanced Simple@L5
Format settings, BVOP : Yes
Format settings, QPel : No
Format settings, GMC : No warppoints
Format settings, Matrix : Custom
Codec ID : XVID
Codec ID/Hint : XviD
Duration : 1h 46mn
Bit rate : 839 Kbps
Width : 656 pixels
Height : 272 pixels
Display aspect ratio : 2.40:1
Frame rate : 24.000 fps
Color space : YUV
Chroma subsampling : 4:2:0
Bit depth : 8 bits
Scan type : Progressive
Compression mode : Lossy
Bits/(Pixel*Frame) : 0.196
Stream size : 641 MiB (86%)
Writing library : XviD 73
Audio
ID : 1
Format : MPEG Audio
Format version : Version 1
Format profile : Layer 3
Codec ID : 55
Codec ID/Hint : MP3
Duration : 1h 46mn
Bit rate mode : Constant
Bit rate : 128 Kbps
Channel(s) : 2 channels
Sampling rate : 48.0 KHz
Compression mode : Lossy
Stream size : 97.8 MiB (13%)
Alignment : Aligned on interleaves
Interleave, duration : 42 ms (1.00 video frame)
Interleave, preload duration : 504 ms
Writing library : LAME3.99r
Encoding settings : -m s -V 4 -q 2 -lowpass 17 -b 128
Скриншоты
Скачать

Скачать торрент! Однажды во Вьетнаме / Once Upon a Time in Vietnam (Дастин Нгуен / Dustin Nguyen) [2013, Вьетнам, боевик, HDRip] VO (xixidok)

Как скачивать? · Что такое торрент? · Рейтинг и ограничения

Сайт не распространяет и не хранит электронные версии произведений, а лишь предоставляет доступ к создаваемому пользователями каталогу ссылок на торрент-файлы, которые содержат только списки хеш-сумм

[Профиль] [ЛС]
Показать сообщения:    
Ответить на тему

Текущее время: Сегодня 21:40

Часовой пояс: GMT + 4



Вы не можете начинать темы
Вы не можете отвечать на сообщения
Вы не можете редактировать свои сообщения
Вы не можете удалять свои сообщения
Вы не можете голосовать в опросах
Вы не можете прикреплять файлы к сообщениям
Вы не можете скачивать файлы