Ничего себе поездочка 3 / Joy Ride 3 (Деклан О’Брайэн / Declan O\'Brien) [2014, США, триллер, BDRip] VO

Ответить на тему
 
Автор Сообщение

user ®

Стаж: 7 лет 7 месяцев

Сообщений: 20008

Пост Пост: #1 от 30-Июн-2014 03:00

[Цитировать]

Ничего себе поездочка 3 / Joy Ride 3- Год выпуска: 2014
Жанр: триллер
Страна: США, WT Canada Productions
Продолжительность: 01:35:53
Перевод: Одноголосый, закадровый - datynet
Субтитры: нет-Режиссер: Деклан О’Брайэн / Declan O'Brien-В ролях: Кирстен Праут, Бен Холлингсворт, Кен Кирзингер, Дин Армстронг, Джесси Хатч, Лила Саваста, Джанпаоло Венута, Джейк Мэнли, Сара Митич, Дж. Адам Браун, Аарон Хьюз, Кайл Нобесс, Скотт Джонсон-Описание: Команда отчаянных гонщиков отправляется в Канаду, чтобы участвовать в Ралли 1000. На своему пути они подрезают грузовик, следующий по трассе 17 — заброшенной дороге, которую людская молва окрестила Аллеей Убийств. И вот уже цель поездки отходит на второй план, и начинается гонка за жизнь…- -Сэмпл: http://multi-up.com/983400-Качество: BDRip [BDRemux / 1080p / кинозал]
Формат: AVI
Видео: 624x352 (1.77:1), 23.976 fps, XviD build 73 ~948 kbps avg, 0.18 bit/pixel
Аудио: 48 kHz, MPEG Layer 3, 2 ch, ~128.00 kbps avg
-Media Info
Формат                                   : AVI
Формат/Информация                        : Audio Video Interleave
Размер файла                             : 744 Мбайт
Продолжительность                        : 1 ч. 35 м.
Общий поток                              : 1085 Кбит/сек
Программа кодирования                    : VirtualDubMod 1.5.10.3 | www.virtualdub-fr.org || (build 2550/release)
Библиотека кодирования                   : VirtualDubMod build 2550/release
Видео
Идентификатор                            : 0
Формат                                   : MPEG-4 Visual
Профиль формата                          : Advanced Simple@L5
Параметр BVOP формата                    : 1
Параметр QPel формата                    : Нет
Параметр GMC формата                     : Без точки перехода
Параметр матрицы формата                 : Выборочная
Идентификатор кодека                     : XVID
Идентификатор кодека/Подсказка           : XviD
Продолжительность                        : 1 ч. 35 м.
Битрейт                                  : 948 Кбит/сек
Ширина                                   : 624 пикселя
Высота                                   : 352 пикселя
Соотношение сторон                       : 16:9
Частота кадров                           : 23,976 кадра/сек
Цветовое пространство                    : YUV
Субдискретизация насыщенности            : 4:2:0
Битовая глубина                          : 8 бит
Тип развёртки                            : Прогрессивная
Метод сжатия                             : С потерями
Бит/(Пиксели*Кадры)                      : 0.180
Размер потока                            : 650 Мбайт (87%)
Библиотека кодирования                   : XviD 73
Аудио
Идентификатор                            : 1
Формат                                   : MPEG Audio
Версия формата                           : Version 1
Профиль формата                          : Layer 3
Идентификатор кодека                     : 55
Идентификатор кодека/Подсказка           : MP3
Продолжительность                        : 1 ч. 35 м.
Вид битрейта                             : Постоянный
Битрейт                                  : 128 Кбит/сек
Каналы                                   : 2 канала
Частота                                  : 48,0 КГц
Метод сжатия                             : С потерями
Размер потока                            : 87,8 Мбайт (12%)
Выравнивание                             : Соединение по промежуткам
Продолжительность промежутка             : 42  мс. (1,00 видеокадр)
Время предзагрузки промежутка            : 504  мс.
Скриншоты
Скачать

Скачать торрент!

Как скачивать? · Что такое торрент? · Рейтинг и ограничения

Сайт не распространяет и не хранит электронные версии произведений, а лишь предоставляет доступ к создаваемому пользователями каталогу ссылок на торрент-файлы, которые содержат только списки хеш-сумм

[Профиль] [ЛС]
Показать сообщения:    
Ответить на тему

Текущее время: Сегодня 03:06

Часовой пояс: GMT + 4



Вы не можете начинать темы
Вы не можете отвечать на сообщения
Вы не можете редактировать свои сообщения
Вы не можете удалять свои сообщения
Вы не можете голосовать в опросах
Вы не можете прикреплять файлы к сообщениям
Вы не можете скачивать файлы