Однажды во Вьетнаме / Once Upon a Time in Vietnam (Дастин Нгуен / Dustin Nguyen) [2013, Вьетнам, боевик, HDRip] VO (xixidok) + Sub Eng

Ответить на тему
 
Автор Сообщение

user ®

Стаж: 11 лет

Сообщений: 15151

Пост Пост: #1 от 29-Июн-2014 23:50

[Цитировать]

Однажды во Вьетнаме / Once Upon a Time in Vietnam
Страна: Вьетнам
Жанр: боевик
Год выпуска: 2013
Продолжительность: 01:46:50
Перевод: Одноголосый закадровый xixidok
Cубтитры: английские (хардсаб)
Режиссер: Дастин Нгуен / Dustin Nguyen
В ролях: Дастин Нгуен, Тан Ван Нго, Роджер Йуан, Таи Хоа, Нгок Дип, Хью Хиен, Фи Тань Ван, Ван Хай Буи, Джейсон Нинх Као, Нгуйен Хау
Описание: Воин-монах Мастер Дао посвятил свою жизнь защите своей страны от врагов. Исполняя приказ императора, он отправляется на поиски дезертиров, которые предпочли мирную жизнь военной службе. Ему предстоит также найти женщину, служившую когда-то в императорской армии, и с которой его связывают личные чувства. Это было давным-давно…
Релиз группы:
Сэмпл: http://multi-up.com/983289
Качество видео: HDRip (BDRip 1080p)
Формат видео: AVI
Видео: XviD, 1746 kbps, 720 х 304 pixels, 24.000 fps
Аудио: AC3, 192 Kbps, 2 channels, Front: L R, 48.0 KHz, 16 bits - Rus
IMDb: 5.90 (149)
MediaInfo
General
Complete name : D:\Once.Upon.A.Time.In.Vietnam.2013.HDRip.1.45Gb.avi
Format : AVI
Format/Info : Audio Video Interleave
File size : 1.45 GiB
Duration : 1h 46mn
Overall bit rate : 1 948 Kbps
Writing application : VirtualDubMod 1.5.10.3 | www.virtualdub-fr.org || (build 2550/release)
Writing library : VirtualDubMod build 2550/release
Video
ID : 0
Format : MPEG-4 Visual
Format profile : Advanced Simple@L5
Format settings, BVOP : Yes
Format settings, QPel : No
Format settings, GMC : No warppoints
Format settings, Matrix : Default (MPEG)
Codec ID : XVID
Codec ID/Hint : XviD
Duration : 1h 46mn
Bit rate : 1 746 Kbps
Width : 720 pixels
Height : 304 pixels
Display aspect ratio : 2.35:1
Frame rate : 24.000 fps
Color space : YUV
Chroma subsampling : 4:2:0
Bit depth : 8 bits
Scan type : Progressive
Compression mode : Lossy
Bits/(Pixel*Frame) : 0.332
Stream size : 1.30 GiB (90%)
Writing library : XviD 73
Audio
ID : 1
Format : AC-3
Format/Info : Audio Coding 3
Mode extension : CM (complete main)
Format settings, Endianness : Big
Codec ID : 2000
Duration : 1h 46mn
Bit rate mode : Constant
Bit rate : 192 Kbps
Channel(s) : 2 channels
Channel positions : Front: L R
Sampling rate : 48.0 KHz
Bit depth : 16 bits
Compression mode : Lossy
Stream size : 147 MiB (10%)
Alignment : Split accross interleaves
Interleave, duration : 42 ms (1.00 video frame)
Interleave, preload duration : 500 ms
Скриншот c названием фильма Скриншоты
Скачать

Скачать торрент! Однажды во Вьетнаме / Once Upon a Time in Vietnam (Дастин Нгуен / Dustin Nguyen) [2013, Вьетнам, боевик, HDRip] VO (xixidok) + Sub Eng

Как скачивать? · Что такое торрент? · Рейтинг и ограничения

Сайт не распространяет и не хранит электронные версии произведений, а лишь предоставляет доступ к создаваемому пользователями каталогу ссылок на торрент-файлы, которые содержат только списки хеш-сумм

[Профиль] [ЛС]
Показать сообщения:    
Ответить на тему

Текущее время: Сегодня 05:37

Часовой пояс: GMT + 4



Вы не можете начинать темы
Вы не можете отвечать на сообщения
Вы не можете редактировать свои сообщения
Вы не можете удалять свои сообщения
Вы не можете голосовать в опросах
Вы не можете прикреплять файлы к сообщениям
Вы не можете скачивать файлы