Смешанные / Blended (Фрэнк Корачи / Frank Coraci) (2014 г., США, комедия, семейный, WEBRip] Dub (Line)

Ответить на тему
 
Автор Сообщение

user ®

Стаж: 7 лет 7 месяцев

Сообщений: 20008

Пост Пост: #1 от 29-Июн-2014 23:50

[Цитировать]

СмешанныеBlended Год выпуска: 2014
Производство: США
Жанр: комедия, семейный
Перевод: Профессиональный (полное дублирование) (Line)
Субтитры: Вшитые не отключаемые
Язык субтитров: Китайские
Оригинальная дорожка: Отсутствует
Продолжительность: 01:56:57
Режиссер: Фрэнк Корачи
В ролях: Адам Сэндлер, Дрю Бэрримор, Кевин Нилон, Терри Крюс, Венди МакЛендон-Кови, Эмма Фурманн, Белла Торн, Брэкстон Бэкхам, Аливия Элин Линд, Джоэл МакХэйл
Описание: После катастрофического свидания «вслепую» родители-одиночки Лорен и Джим согласны только в одном: они не хотят больше видеть друг друга никогда! Полагая, что их знакомство окончено, обе семьи пользуются удобным случаем и отправляются в идеальный отпуск с детьми. А оказываются в одних и тех же гостиничных апартаментах на роскошном южноафриканском курорте аж на целую неделю.
Качество видео: WEBRip [сэмпл]
Видеокодек: XviD
Аудиокодек: AC3
Видео: 720x384 (1.88:1), 23.976 fps, XviD build 50, 1531 kbps avg, 0.23 bit/pixel
Аудио: 48 kHz, AC3 Dolby Digital, 2/0 (L,R) ch, 128 kbps

Скриншоты MediaInfo

Общее
Полное имя : Biended.2014.D.WEBRip.1400MB.nnm-club.avi
Формат : AVI
Формат/Информация : Audio Video Interleave
Размер файла : 1,36 Гбайт
Продолжительность : 1 ч. 56 м.
Общий поток : 1669 Кбит/сек
Программа кодирования : VirtualDubMod 1.5.10.2 (build 2540/release)
Библиотека кодирования : VirtualDubMod build 2540/release
Видео
Идентификатор : 0
Формат : MPEG-4 Visual
Профиль формата : Advanced Simple@L5
Параметр BVOP формата : 2
Параметр QPel формата : Нет
Параметр GMC формата : Без точки перехода
Параметр матрицы формата : Выборочная
Идентификатор кодека : XVID
Идентификатор кодека/Подсказка : XviD
Продолжительность : 1 ч. 56 м.
Битрейт : 1532 Кбит/сек
Ширина : 720 пикселей
Высота : 384 пикселя
Соотношение сторон : 1,85:1
Частота кадров : 23,976 кадра/сек
Цветовое пространство : YUV
Субдискретизация насыщенности : 4:2:0
Битовая глубина : 8 бит
Тип развёртки : Прогрессивная
Метод сжатия : С потерями
Бит/(Пиксели*Кадры) : 0.231
Размер потока : 1,25 Гбайт (92%)
Библиотека кодирования : XviD 1.2.1 (UTC 2008-12-04)
Аудио
Идентификатор : 1
Формат : AC-3
Формат/Информация : Audio Coding 3
Расширение режима : CM (complete main)
Параметр Endianness формата : Big
Идентификатор кодека : 2000
Продолжительность : 1 ч. 56 м.
Вид битрейта : Постоянный
Битрейт : 128 Кбит/сек
Каналы : 2 канала
Расположение каналов : Front: L R
Частота : 48,0 КГц
Битовая глубина : 16 бит
Метод сжатия : С потерями
Размер потока : 107 Мбайт (8%)
Выравнивание : Разделение по промежуткам
Продолжительность промежутка : 42 мс. (1,00 видеокадр)
Время предзагрузки промежутка : 500 мс.
Рейтинг
Скачать

Скачать торрент!

Как скачивать? · Что такое торрент? · Рейтинг и ограничения

Сайт не распространяет и не хранит электронные версии произведений, а лишь предоставляет доступ к создаваемому пользователями каталогу ссылок на торрент-файлы, которые содержат только списки хеш-сумм

[Профиль] [ЛС]
Показать сообщения:    
Ответить на тему

Текущее время: Сегодня 05:58

Часовой пояс: GMT + 4



Вы не можете начинать темы
Вы не можете отвечать на сообщения
Вы не можете редактировать свои сообщения
Вы не можете удалять свои сообщения
Вы не можете голосовать в опросах
Вы не можете прикреплять файлы к сообщениям
Вы не можете скачивать файлы