Живи для меня / Jeena Sirf Merre Liye (Талат Джани / Talat Jani) [2002, Индия, Мелодрама, DVDRip] MVO

Ответить на тему
 
Автор Сообщение

user ®

Стаж: 12 лет

Сообщений: 15092

Пост Пост: #1 от 29-Июн-2014 20:40

[Цитировать]

Живи для меня / Jeena Sirf Merre Liye
Страна: Индия
Жанр: Мелодрама
Год выпуска: 2002
Продолжительность: 02:25:22
Перевод: Профессиональный (многоголосый закадровый)
Cубтитры: нет
Режиссер: Талат Джани / Talat Jani
В ролях: Карина Капур, Тусшар Капур, Малика Шерават, Кадер Кхан, Алок Натх, Виджаендра Гхатге, Сатиш Шах, Химани Шивпури
Описание: Разлученные в детстве Каран (Тусшар Капур) и Пуджа (Карина Капур) проносят свою любовь через многие годы. Все это время они безуспешно пытаются разыскать друг друга, а когда находят, то вынуждены отказаться от продолжения отношений во имя благополучия родных...
Сэмпл: http://multi-up.com/983337
Качество видео: DVDRip
Формат видео: AVI
Видео: XviD build 50, 640x288 (2.22:1), 23.976 fps, 1300 kbps avg
Аудио: MPEG Layer 3, 48 kHz, 2/0 (L,R) ch, 128.00 kbps avg
MediaInfo
General
Complete name : D:\Zhivi.dlja.menja.2002.DVDRip-Dego.avi
Format : AVI
Format/Info : Audio Video Interleave
File size : 1.46 GiB
Duration : 2h 25mn
Overall bit rate : 1 438 Kbps
Writing application : VirtualDubMod 1.5.10.2 (build 2540/release)
Writing library : VirtualDubMod build 2540/release
Video
ID : 0
Format : MPEG-4 Visual
Format profile : AdvancedSimple@L5
Format settings, BVOP : Yes
Format settings, QPel : No
Format settings, GMC : No warppoints
Format settings, Matrix : Custom
Codec ID : XVID
Codec ID/Hint : XviD
Duration : 2h 25mn
Bit rate : 1 301 Kbps
Width : 640 pixels
Height : 288 pixels
Display aspect ratio : 2.222
Frame rate : 23.976 fps
Resolution : 24 bits
Colorimetry : 4:2:0
Scan type : Progressive
Bits/(Pixel*Frame) : 0.294
Stream size : 1.32 GiB (90%)
Writing library : XviD 1.2.1 (UTC 2008-12-04)
Audio
ID : 1
Format : MPEG Audio
Format version : Version 1
Format profile : Layer 3
Codec ID : 55
Codec ID/Hint : MP3
Duration : 2h 25mn
Bit rate mode : Constant
Bit rate : 128 Kbps
Channel(s) : 2 channels
Sampling rate : 48.0 KHz
Resolution : 16 bits
Stream size : 133 MiB (9%)
Alignment : Aligned on interleaves
Interleave, duration : 42 ms (1.00 video frame)
Interleave, preload duration : 504 ms
Writing library : LAME3.98r
Encoding settings : -m s -V 4 -q 2 -lowpass 17 -b 128
Скриншоты
Скачать

Скачать торрент! Живи для меня / Jeena Sirf Merre Liye (Талат Джани / Talat Jani) [2002, Индия, Мелодрама, DVDRip] MVO

Как скачивать? · Что такое торрент? · Рейтинг и ограничения

Сайт не распространяет и не хранит электронные версии произведений, а лишь предоставляет доступ к создаваемому пользователями каталогу ссылок на торрент-файлы, которые содержат только списки хеш-сумм

[Профиль] [ЛС]
Показать сообщения:    
Ответить на тему

Текущее время: Сегодня 06:42

Часовой пояс: GMT + 4



Вы не можете начинать темы
Вы не можете отвечать на сообщения
Вы не можете редактировать свои сообщения
Вы не можете удалять свои сообщения
Вы не можете голосовать в опросах
Вы не можете прикреплять файлы к сообщениям
Вы не можете скачивать файлы