Этот демон внутри / That Demon Within / Mo jing (Данте Лам / Dante Lam) [2014, Гонконг, Китай, боевик, криминал, HDRip] DVO (den904 & DeadSno)

Ответить на тему
 
Автор Сообщение

user ®

Стаж: 11 лет

Сообщений: 15151

Пост Пост: #1 от 28-Июн-2014 00:15

[Цитировать]

Этот демон внутри / That Demon Within / Mo jing
Страна: Гонконг, Китай
Студия: Emperor Motion Pictures
Жанр: боевик, криминал
Год выпуска: 2014
Продолжительность: 01:51:16
Перевод: Любительский (двухголосый закадровый) den904 & DeadSno
Cубтитры: нет
Режиссер: Данте Лам / Dante Lam
В ролях: Дэниэл Ву, Ник Чун, Лью Кай Чи, Ка Ва Лам, Энди Он, Квок-Лун Ли, Стефен Ау, Куан-Чун Чи, Сингх Хартихан Битто
Описание: Верный своему долгу полицейский невольно спасает жизнь лидеру криминальной банды. Страдая чувством вины, он становится одержим идеей сокрушить синдикат человека, которого он спас.
Сэмпл: http://multi-up.com/982972
Тип релиза: HDRip - BDRip 720p
Контейнер: AVI
Видео: XviD, 800 Kbps, 640 х 272 pixels, 24.000 fps
Аудио: MP3, 128 Kbps, 2 channels, 48.0 KHz Rus (DVO)

MediaInfo
General
Complete name : D:\That.Demon.Within.2014.HDRip.745Mb.avi
Format : AVI
Format/Info : Audio Video Interleave
File size : 746 MiB
Duration : 1h 51mn
Overall bit rate : 937 Kbps
Writing application : VirtualDubMod 1.5.10.3 | www.virtualdub-fr.org || (build 2550/release)
Writing library : VirtualDubMod build 2550/release
Video
ID : 0
Format : MPEG-4 Visual
Format profile : Advanced Simple@L5
Format settings, BVOP : Yes
Format settings, QPel : No
Format settings, GMC : No warppoints
Format settings, Matrix : Custom
Codec ID : XVID
Codec ID/Hint : XviD
Duration : 1h 51mn
Bit rate : 800 Kbps
Width : 640 pixels
Height : 272 pixels
Display aspect ratio : 2.35:1
Frame rate : 24.000 fps
Color space : YUV
Chroma subsampling : 4:2:0
Bit depth : 8 bits
Scan type : Progressive
Compression mode : Lossy
Bits/(Pixel*Frame) : 0.191
Stream size : 636 MiB (85%)
Writing library : XviD 73
Audio
ID : 1
Format : MPEG Audio
Format version : Version 1
Format profile : Layer 3
Codec ID : 55
Codec ID/Hint : MP3
Duration : 1h 51mn
Bit rate mode : Constant
Bit rate : 128 Kbps
Channel(s) : 2 channels
Sampling rate : 48.0 KHz
Compression mode : Lossy
Stream size : 102 MiB (14%)
Alignment : Aligned on interleaves
Interleave, duration : 42 ms (1.00 video frame)
Interleave, preload duration : 504 ms
Writing library : LAME3.99r
Encoding settings : -m s -V 4 -q 2 -lowpass 17 -b 128
Скриншоты
Скачать

Скачать торрент! Этот демон внутри / That Demon Within / Mo jing (Данте Лам / Dante Lam) [2014, Гонконг, Китай, боевик, криминал, HDRip] DVO (den904 & DeadSno)

Как скачивать? · Что такое торрент? · Рейтинг и ограничения

Сайт не распространяет и не хранит электронные версии произведений, а лишь предоставляет доступ к создаваемому пользователями каталогу ссылок на торрент-файлы, которые содержат только списки хеш-сумм

[Профиль] [ЛС]
Показать сообщения:    
Ответить на тему

Текущее время: Сегодня 04:19

Часовой пояс: GMT + 4



Вы не можете начинать темы
Вы не можете отвечать на сообщения
Вы не можете редактировать свои сообщения
Вы не можете удалять свои сообщения
Вы не можете голосовать в опросах
Вы не можете прикреплять файлы к сообщениям
Вы не можете скачивать файлы