Доверчивый дракон (Леонид Шварцман) [1988 г., мультфильм, DVB]

Ответить на тему
 
Автор Сообщение

user ®

Стаж: 7 лет 7 месяцев

Сообщений: 20008

Пост Пост: #1 от 27-Июн-2014 21:05

[Цитировать]

Доверчивый дракон
Жанр: мультфильм
Год выпуска: 1988
Продолжительность: 00:09:34
Режиссёр: Леонид Шварцман
Описание: мультфильм о том, как однажды одному мужику подкинули одно интересное яйцо из которого вылупился настоящий дракоша. Проходит немного времени и наш герой подрос, но его хозяева боятся говорить ему правду кто он на самом деле, так как боятся за свою жизнь. Они говорят, что он птица, затем, что собака, так как наш доверчивый дракон всему верил и когда узнал правду... Современная сказка о том, как появившийся на свет Дракон, встретив к себе хорошее отношение стал милым добродушным существом..

Трансляция спутникового канала: "Карусель"
Качество видео: DVB
Формат видео: MPEG-PS
Видео: MPEG2 Video, 720x576, 25 fps, 3500 kbps
Аудио: MPEG Audio, 2 сh, 48 kHz, 192 kbps
MediaInfo
General
Complete name : D:\Доверчивый дракон. (1988)_DVB by RG multfilms.mpg
Format : MPEG-PS
File size : 258 MiB
Duration : 9mn 34s
Overall bit rate mode : Variable
Overall bit rate : 3 775 Kbps
Video
ID : 224 (0xE0)
Format : MPEG Video
Format version : Version 2
Format profile : Main@Main
Format settings, BVOP : No
Format settings, Matrix : Custom
Format settings, GOP : M=3, N=12
Duration : 9mn 34s
Bit rate mode : Variable
Bit rate : 3 508 Kbps
Maximum bit rate : 5 000 Kbps
Width : 720 pixels
Height : 576 pixels
Display aspect ratio : 4:3
Frame rate : 25.000 fps
Standard : PAL
Color space : YUV
Chroma subsampling : 4:2:0
Bit depth : 8 bits
Scan type : Interlaced
Scan order : Top Field First
Compression mode : Lossy
Bits/(Pixel*Frame) : 0.338
Time code of first frame : 00:00:00:00
Time code source : Group of pictures header
Stream size : 240 MiB (93%)
Audio
ID : 192 (0xC0)
Format : MPEG Audio
Format version : Version 1
Format profile : Layer 2
Duration : 9mn 34s
Bit rate mode : Constant
Bit rate : 192 Kbps
Channel(s) : 2 channels
Sampling rate : 48.0 KHz
Compression mode : Lossy
Stream size : 13.1 MiB (5%)
Скриншоты
Скачать

Скачать торрент!

Как скачивать? · Что такое торрент? · Рейтинг и ограничения

Сайт не распространяет и не хранит электронные версии произведений, а лишь предоставляет доступ к создаваемому пользователями каталогу ссылок на торрент-файлы, которые содержат только списки хеш-сумм

[Профиль] [ЛС]
Показать сообщения:    
Ответить на тему

Текущее время: Сегодня 02:26

Часовой пояс: GMT + 4



Вы не можете начинать темы
Вы не можете отвечать на сообщения
Вы не можете редактировать свои сообщения
Вы не можете удалять свои сообщения
Вы не можете голосовать в опросах
Вы не можете прикреплять файлы к сообщениям
Вы не можете скачивать файлы