Царь детей / King of the Children (Чэнь Кайге / Chen Kaige) [1987, Китай, Драма, DVDRip] VO D.I.M.

Ответить на тему
 
Автор Сообщение

user ®

Стаж: 11 лет

Сообщений: 15151

Пост Пост: #1 от 27-Июн-2014 21:05

[Цитировать]

Царь детей / King of the Children
Страна: Китай
Жанр: Драма
Год выпуска: 1987
Продолжительность: 1:45:52
Перевод: Одноголосый закадровый D.I.M.
Cубтитры: нет
Режиссер: Чэнь Кайге / Chen Kaige
В ролях: Юань Се / Yuan Xie
Сюэвень Ян / Xuewen Yang
Шаохуа Чэнь / Shaohua Chen
Цаймэй Чжан / Caimei Zhang
Гоцин Сюй / Guoqing Xu
Описание: Это история о молодом человек, которого во время
культурной революции направляют работать в деревню.
Но неожиданно, спустя какое-то время,
ему предлагают стать учителем в этом горном районе,
хотя у него совершенно нет такой квалификации.
Столкнувшись с апатией учеников к учёбе,
он откладывает в сторону учебник и учит их думать своей головой.
Но как долго продлится его самодеятельность?
Это девяносто седьмой фильм с моим переводом и озвучкой,
выложенный здесь.
Сэмпл: http://multi-up.com/982897
Качество видео: DVDRip
Формат видео: AVI
Видео: 720*384 (16:9), 23,976 fps, MPEG-4 Visual (XviD) ~ 1565 kbps avg, 0.236 bit/pixel
Аудио: MPEG Audio Layer 3, 48000Hz, stereo, 128kbps
MediaInfo
Общее
Полное имя : E:\TORENT\РАЗДАЧИ (РИПЫ)\King of the Children.avi
Формат : AVI
Формат/Информация : Audio Video Interleave
Размер файла : 1,26 Гбайт
Продолжительность : 1 ч. 45 м.
Общий поток : 1702 Кбит/сек
Программа кодирования : VirtualDubModRus 1.5.10.2 (build 2542/release)
Библиотека кодирования : VirtualDubMod build 2542/release
Видео
Идентификатор : 0
Формат : MPEG-4 Visual
Профиль формата : Advanced Simple@L5
Параметр BVOP формата : Нет
Параметр QPel формата : Нет
Параметр GMC формата : Без точки перехода
Параметр матрицы формата : Выборочная
Идентификатор кодека : XVID
Идентификатор кодека/Подсказка : XviD
Продолжительность : 1 ч. 45 м.
Битрейт : 1565 Кбит/сек
Ширина : 720 пикс.
Высота : 384 пикс.
Соотношение сторон : 1,875
Частота кадров : 23,976 кадр/сек
Цветовое пространство : YUV
Подвыборка цветности : 4:2:0
Битовая глубина : 8 бит
Тип развёртки : Прогрессивная
Метод сжатия : С потерями
Бит/(Пиксели*Кадры) : 0.236
Размер потока : 1,16 Гбайт (92%)
Библиотека кодирования : XviD 63
Аудио
Идентификатор : 1
Формат : MPEG Audio
Версия формата : Version 1
Профиль формата : Layer 3
Режим : Joint stereo
Идентификатор кодека : 55
Идентификатор кодека/Подсказка : MP3
Продолжительность : 1 ч. 45 м.
Вид битрейта : Постоянный
Битрейт : 128 Кбит/сек
Канал(ы) : 2 канала(ов)
Частота : 48,0 КГц
Метод сжатия : С потерями
Размер потока : 96,9 Мбайт (8%)
Выравнивание : Соединение по промежуткам
Продолжительность промежутка : 42 мс. (1,00 видеокадр)
Время предзагрузки промежутка : 504 ms
Язык : Russian
Скриншот c названием фильма Скриншоты
Скачать

Скачать торрент! Царь детей / King of the Children (Чэнь Кайге / Chen Kaige) [1987, Китай, Драма, DVDRip] VO D.I.M.

Как скачивать? · Что такое торрент? · Рейтинг и ограничения

Сайт не распространяет и не хранит электронные версии произведений, а лишь предоставляет доступ к создаваемому пользователями каталогу ссылок на торрент-файлы, которые содержат только списки хеш-сумм

[Профиль] [ЛС]
Показать сообщения:    
Ответить на тему

Текущее время: Сегодня 20:02

Часовой пояс: GMT + 4



Вы не можете начинать темы
Вы не можете отвечать на сообщения
Вы не можете редактировать свои сообщения
Вы не можете удалять свои сообщения
Вы не можете голосовать в опросах
Вы не можете прикреплять файлы к сообщениям
Вы не можете скачивать файлы