Скорпион на ладони (Сергей Ткачев) [2013, Мелодрама, детектив, WEBRip]

Ответить на тему
 
Автор Сообщение

user ®

Стаж: 7 лет 7 месяцев

Сообщений: 20008

Пост Пост: #1 от 27-Июн-2014 21:05

[Цитировать]

Скорпион на ладони
Жанр: Мелодрама, детектив
Год выпуска: 2013
Продолжительность: 01:13:08
Выпущено: Россия, TATA STUDIO
Перевод: Не требуется
Cубтитры: нет
Режиссёр: Сергей Ткачев
В ролях: Сергей Ткачев, Наталия Ткачева (II), Ольга Сутулова, Мария Шалаева, Владислав Сыч, Геннадий Карпенко, Никита Ткачев, Сергей Щепачев, Елена Карпенко, Вероника Ткачева, Серафим Сыч
Описание: Журналист Саша Таранов пытается пережить смерть любимой жены, прибегая к рекомендациям маститого психотерапевта. Желая заглушить боль утраты, он совершает экстравагантные поступки, граничащие с откровенным безумием. Забросив свою работу и привычный образ жизни, он проводит дни напролет в шатаниях по городу. На своем пути он встречает трех женщин — ЛИКУ, ОЛЬГУ и АННУ, каждая из которых может стать его спасительным лекарством и нитью, выводящей к свету. Но вначале ему предстоит разгадать тайну внезапного исчезновения одной из них…
Сэмпл: http://sendfile.su/995173
Качество видео: WEBRip
Формат видео: AVI
Видео: MPEG4, XviD, 640x384 (1.667), 25.000 fps, 2 217 Kbps (0.361 bit/pixel)
Аудио: AC-3, 48.0 KHz, 2 ch, 448 Kbps, CBR
MediaInfo
Общее
Полное имя : K:\Skorpion.na.ladoni.2013.WEBRip.1400Mb.avi
Формат : AVI
Формат/Информация : Audio Video Interleave
Размер файла : 1,37 Гбайт
Продолжительность : 1 ч. 13 м.
Общий поток : 2675 Кбит/сек
Программа кодирования : VirtualDubMod 1.5.10.3 | www.virtualdub-fr.org || (build 2550/release)
Библиотека кодирования : VirtualDubMod build 2550/release
Видео
Идентификатор : 0
Формат : MPEG-4 Visual
Профиль формата : Advanced Simple@L5
Параметр BVOP формата : 2
Параметр QPel формата : Нет
Параметр GMC формата : Без точки перехода
Параметр матрицы формата : Default (MPEG)
Идентификатор кодека : XVID
Идентификатор кодека/Подсказка : XviD
Продолжительность : 1 ч. 13 м.
Битрейт : 2217 Кбит/сек
Ширина : 640 пикселей
Высота : 384 пикселя
Соотношение сторон : 1,667
Частота кадров : 25,000 кадров/сек
Цветовое пространство : YUV
Субдискретизация насыщенности : 4:2:0
Битовая глубина : 8 бит
Тип развёртки : Прогрессивная
Метод сжатия : С потерями
Бит/(Пиксели*Кадры) : 0.361
Размер потока : 1,13 Гбайт (83%)
Библиотека кодирования : XviD 1.2.1 (UTC 2008-12-04)
Аудио
Идентификатор : 1
Формат : AC-3
Формат/Информация : Audio Coding 3
Расширение режима : CM (complete main)
Параметр Endianness формата : Big
Идентификатор кодека : 2000
Продолжительность : 1 ч. 13 м.
Вид битрейта : Постоянный
Битрейт : 448 Кбит/сек
Каналы : 2 канала
Расположение каналов : Front: L R
Частота : 48,0 КГц
Битовая глубина : 16 бит
Метод сжатия : С потерями
Размер потока : 234 Мбайт (17%)
Выравнивание : Разделение по промежуткам
Продолжительность промежутка : 40 мс. (1,00 видеокадр)
Время предзагрузки промежутка : 500 мс.
Скриншоты
Скачать

Скачать торрент!

Как скачивать? · Что такое торрент? · Рейтинг и ограничения

Сайт не распространяет и не хранит электронные версии произведений, а лишь предоставляет доступ к создаваемому пользователями каталогу ссылок на торрент-файлы, которые содержат только списки хеш-сумм

[Профиль] [ЛС]
Показать сообщения:    
Ответить на тему

Текущее время: Сегодня 02:18

Часовой пояс: GMT + 4



Вы не можете начинать темы
Вы не можете отвечать на сообщения
Вы не можете редактировать свои сообщения
Вы не можете удалять свои сообщения
Вы не можете голосовать в опросах
Вы не можете прикреплять файлы к сообщениям
Вы не можете скачивать файлы