Ничего себе поездочка 3 / Joy Ride 3 (Деклан О’Брайэн / Declan O\'Brien) [2014, США, триллер, BDRip-AVC] VO (datynet) + Sub Rus + Original Eng

Ответить на тему
 
Автор Сообщение

user ®

Стаж: 7 лет 7 месяцев

Сообщений: 20008

Пост Пост: #1 от 27-Июн-2014 09:20

[Цитировать]

Ничего себе поездочка 3 / Joy Ride 3
Страна: США
Жанр: триллер
Год выпуска: 2014
Продолжительность: 01:36:23
Перевод: Одноголосый закадровый datynet
Cубтитры: русские,английские
Оригинальная аудиодорожка: английский
Режиссер: Деклан О’Брайэн / Declan O'Brien
В ролях: Кирстен Праут, Бен Холлингсворт, Кен Кирзингер, Дин Армстронг, Джесси Хатч, Лила Саваста, Джанпаоло Венута, Джейк Мэнли, Сара Митич
Описание: Команда отчаяных гонщиков отправляется в Канаду, чтобы участвовать в Ралли 1000. На своему пути они подрезают грузовик, следующий по трассе 17 - заброшенной дороге, которую людская молва окрестила Аллеей Убийств. И вот уже цель поездки отходит на второй план, и начинается гонка за жизнь.

Сэмпл: http://multi-up.com/982837
Качество видео: BDRip-AVC
Исходник:Joy.Ride.3.2014.BluRay.1080p.AVC.DTS-HD.MA5.1-CHDBits
Формат видео: MKV
Видео: h264;832x468;Aspect Ratio: 16:9(1.78:1);2617kbps;23.976fps
Аудио: AC3;Sample Rate: 48000Hz;Channel:2(Stereo);192kbps
Аудио 2: AC3;Sample Rate:48000Hz;Channel:6(5.1);448kbps
Формат субтитров: softsub (SRT)
MediaInfo
Video
ID : 1
Format : AVC
Format/Info : Advanced Video Codec
Format profile : High@L4.1
Format settings, CABAC : Yes
Format settings, ReFrames : 7 frames
Codec ID : V_MPEG4/ISO/AVC
Duration : 1h 36mn
Bit rate : 2 617 Kbps
Width : 832 pixels
Height : 468 pixels
Display aspect ratio : 16:9
Frame rate mode : Constant
Frame rate : 23.976 fps
Color space : YUV
Chroma subsampling : 4:2:0
Bit depth : 8 bits
Scan type : Progressive
Bits/(Pixel*Frame) : 0.280
Stream size : 1.71 GiB (78%)
Writing library : x264 core 142 Рип от KinoCollection
Encoding settings : cabac=1 / ref=7 / deblock=1:-3:-3 / analyse=0x3:0x113 / me=umh / subme=9 / psy=1 / fade_compensate=0.00 / psy_rd=1.00:0.10 / mixed_ref=1 / me_range=32 / chroma_me=1 / trellis=2 / 8x8dct=1 / cqm=0 / deadzone=21,11 / fast_pskip=0 / chroma_qp_offset=-3 / threads=6 / lookahead_threads=1 / sliced_threads=0 / nr=0 / decimate=1 / interlaced=0 / bluray_compat=0 / constrained_intra=0 / fgo=0 / bframes=16 / b_pyramid=2 / b_adapt=2 / b_bias=0 / direct=3 / weightb=1 / open_gop=1 / weightp=2 / keyint=240 / keyint_min=23 / scenecut=40 / intra_refresh=0 / rc_lookahead=60 / rc=2pass / mbtree=1 / bitrate=2617 / ratetol=1.0 / qcomp=0.60 / qpmin=0 / qpmax=69 / qpstep=4 / cplxblur=20.0 / qblur=0.5 / ip_ratio=1.40 / aq=1:1.00
Language : English
Default : Yes
Forced : No
Audio #1
ID : 2
Format : AC-3
Format/Info : Audio Coding 3
Mode extension : CM (complete main)
Format settings, Endianness : Big
Codec ID : A_AC3
Duration : 1h 36mn
Bit rate mode : Constant
Bit rate : 192 Kbps
Channel(s) : 2 channels
Channel positions : Front: L R
Sampling rate : 48.0 KHz
Bit depth : 16 bits
Compression mode : Lossy
Stream size : 132 MiB (6%)
Language : Russian
Default : Yes
Forced : No
Audio #2
ID : 3
Format : AC-3
Format/Info : Audio Coding 3
Mode extension : CM (complete main)
Format settings, Endianness : Big
Codec ID : A_AC3
Duration : 1h 36mn
Bit rate mode : Constant
Bit rate : 448 Kbps
Channel(s) : 6 channels
Channel positions : Front: L C R, Side: L R, LFE
Sampling rate : 48.0 KHz
Bit depth : 16 bits
Compression mode : Lossy
Stream size : 309 MiB (14%)
Language : English
Default : No
Forced : No
Text #1
ID : 4
Format : UTF-8
Codec ID : S_TEXT/UTF8
Codec ID/Info : UTF-8 Plain Text
Language : Russian
Default : No
Forced : No
Text #2
ID : 5
Format : UTF-8
Codec ID : S_TEXT/UTF8
Codec ID/Info : UTF-8 Plain Text
Language : English
Default : No
Forced : No
Menu
00:00:00.000 : :00:00:00.000
00:05:34.251 : :00:05:34.251
00:10:53.069 : :00:10:53.069
00:13:03.408 : :00:13:03.408
00:16:29.030 : :00:16:29.030
00:18:09.338 : :00:18:09.338
00:21:27.995 : :00:21:27.995
00:25:32.740 : :00:25:32.740
00:29:08.455 : :00:29:08.455
00:33:45.023 : :00:33:45.023
00:36:55.422 : :00:36:55.422
00:39:06.219 : :00:39:06.219
00:44:17.780 : :00:44:17.780
00:47:24.800 : :00:47:24.800
00:51:15.114 : :00:51:15.114
00:54:12.124 : :00:54:12.124
00:58:44.730 : :00:58:44.730
01:03:42.944 : :01:03:42.944
01:05:00.897 : :01:05:00.897
01:08:29.147 : :01:08:29.147
01:12:02.610 : :01:12:02.610
01:15:09.880 : :01:15:09.880
01:19:00.069 : :01:19:00.069
01:22:11.927 : :01:22:11.927
01:23:49.608 : :01:23:49.608
01:28:00.609 : :01:28:00.609
01:30:05.567 : :01:30:05.567
01:32:16.531 : :01:32:16.531
Скриншот c названием фильма Скриншоты
Скачать

Скачать торрент!

Как скачивать? · Что такое торрент? · Рейтинг и ограничения

Сайт не распространяет и не хранит электронные версии произведений, а лишь предоставляет доступ к создаваемому пользователями каталогу ссылок на торрент-файлы, которые содержат только списки хеш-сумм

[Профиль] [ЛС]
Показать сообщения:    
Ответить на тему

Текущее время: Сегодня 05:06

Часовой пояс: GMT + 4



Вы не можете начинать темы
Вы не можете отвечать на сообщения
Вы не можете редактировать свои сообщения
Вы не можете удалять свои сообщения
Вы не можете голосовать в опросах
Вы не можете прикреплять файлы к сообщениям
Вы не можете скачивать файлы