Груз 200 (Алексей Балабанов) [2007, триллер, драма, BDRip]

Ответить на тему
 
Автор Сообщение

user ®

Стаж: 7 лет 7 месяцев

Сообщений: 20008

Пост Пост: #1 от 27-Июн-2014 00:05

[Цитировать]

Груз 200Год выпуска: 2007
Страна: Россия
Жанр: триллер, драма
Продолжительность: 01:29:16
Перевод: Не требуется
Cубтитры: нет
Режиссер: Алексей Балабанов
Сценарий: Алексей Балабанов
Продюсер: Сергей Сельянов, Максим Уханов
Оператор: Александр Симонов, Заур Болотаев
В ролях: Агния Кузнецова (Анжелика), Алексей Полуян (капитан Журов), Леонид Громов (профессор Артем), Алексей Серебряков (Алексей), Леонид Бичевин (Валера), Наталья Акимова (Антонина, жена Алексея), Юрий Степанов (Михаил), Михаил Скрябин (Сунька), Сергей Александров (майор Дуев), Валентина Андрюкова (мать Журова), Константин Балакирев (Коля Горбунов), Александр Баширов (алкоголик)
Дублёры: Оксана Сурнина (Анжелика; Лиза), Сергей Маковецкий (профессор Артем)-Сборы в России: $570 000
Мировая премьера: 29 августа 2007
Релиз на DVD: 12 июля 2007, «Союз-Видео»
Релиз на Blu-ray: 7 июля 2009, «Монолит»-«Груз 200» — одиннадцатый фильм режиссёра Алексея Балабанова, снятый в 2007 году. Жестокая драма о нравах провинциального города на закате советской эпохи и персонажах той поры. Фильм вышел в российский прокат 14 июня 2007 года, однако во многих кинотеатрах после нескольких дней проката был снят. Приз Гильдии российских кинокритиков на кинофестивале «Кинотавр».

Описание:
СССР. 1984 год. Финал советской эпохи. Провинция. После дискотеки пропадает дочь секретаря райкома партии. Свидетелей нет. Виновные не обнаружены. В этот же вечер в доме на окраине города происходит жестокое убийство. Виновный - хозяин дома. Оба расследования поручены капитану милиции Журову...--[/url]Рейтинг
kinopoisk.ru: 6.262 (22 729)
imdb.com: 7.10 (3544)

-
--Качество: BDRip (Blu-Ray)
Формат: AVI ///СОВМЕСТИМО С БЫТОВЫМИ ПЛЕЕРАМИ///
Размер : 1/6 DVD-R
Видео: 656x368 (1.78:1), 23.976 fps, XviD build 73 ~966 kbps avg, 0.17 bit/pixel
Аудио: 48 kHz, AC3 Dolby Digital, 2/0 (L,R) Surround Encoded ch, ~192 kbps

MediaInfo
Код:
General
Complete name : H:\!Allfilms\Gruz.200.2007.XviD.BDRip.-Allfilms.avi
Format : AVI
Format/Info : Audio Video Interleave
File size : 746 MiB
Duration : 1h 29mn
Overall bit rate : 1 168 Kbps
Movie name : Груз 200 [2007] BDRip
Director : Юpист
Writing application : VirtualDubMod 1.5.10.3 | www.virtualdub-fr.org || (build 2550/release)
Writing library : VirtualDubMod build 2550/release
Copyright : RG All Films
Comment : «Груз 200» — одиннадцатый фильм режиссёра Алексея Балабанова, 2007 года. Жестокая драма о нравах провинциального города на закате советской эпохи и персонажах той поры.
Video
ID : 0
Format : MPEG-4 Visual
Format profile : Advanced Simple@L5
Format settings, BVOP : 1
Format settings, QPel : No
Format settings, GMC : No warppoints
Format settings, Matrix : Custom
Codec ID : XVID
Codec ID/Hint : XviD
Duration : 1h 29mn
Bit rate : 967 Kbps
Width : 656 pixels
Height : 368 pixels
Display aspect ratio : 16:9
Frame rate : 23.976 fps
Color space : YUV
Chroma subsampling : 4:2:0
Bit depth : 8 bits
Scan type : Progressive
Compression mode : Lossy
Bits/(Pixel*Frame) : 0.167
Stream size : 617 MiB (83%)
Writing library : XviD 73
Audio
ID : 1
Format : AC-3
Format/Info : Audio Coding 3
Format profile : Dolby Digital
Mode extension : CM (complete main)
Format settings, Endianness : Big
Codec ID : 2000
Duration : 1h 29mn
Bit rate mode : Constant
Bit rate : 192 Kbps
Channel count : 2 channels
Channel positions : Front: L R
Sampling rate : 48.0 KHz
Bit depth : 16 bits
Compression mode : Lossy
Stream size : 123 MiB (16%)
Alignment : Split accross interleaves
Interleave, duration : 42 ms (1.00 video frame)
Interleave, preload duration : 500 ms

-
-Скриншоты
-
Знаете ли Вы, что...

  • Главные роли писались специально под Евгения Миронова и Сергея Маковецкого. Оба актера отказались после прочтения сценария. Сергей Маковецкий посоветовал режиссеру картины Алексею Балабанову вообще отказаться от съемок этого фильма.
  • От съёмок в фильме отказался Кирилл Пирогов.
  • В конце фильма и в титрах звучит песня «Время есть, а денег нет» группы «Кино». Причём, в кадре группа (изображаемая актёрами) показана выступающей на сцене, но за кадром звучит студийная версия песни 1982 года.
  • Съёмки картины проходили в окрестностях Выборга и в Череповце. Кроме того, часть материала пришлось отснять в студийных павильонах Санкт-Петербурга.
  • Двумя основными песнями, несколько раз звучащими в фильме, являются Ариэль (ВИА) - В краю магнолий и Юрий Лоза - Плот.
  • Сюжету «Груза 200» больше десяти лет. Алексей Балабанов поделился им с продюсером картины Сергеем Сельяновым еще при знакомстве на Высших курсах режиссеров и сценаристов.
  • «Груз 200» отказались показывать на Берлинском и Каннском кинофестивалях.
  • Фильм официально не рекомендован к показу на российских телеканалах.
  • «Груз 200» стал первым российским фильмом, выпущенным не только на пленке, но и на цифровых носителях для кинотеатров, отличающихся более высоким качеством изображения.
  • Одна из лучших книг на тему тоталитарного режима была написана Джорджем Оруэллом и называется «1984». Именно в 1984 г. происходит действие картины Балабанова.
Скачать

Скачать торрент!

Как скачивать? · Что такое торрент? · Рейтинг и ограничения

Сайт не распространяет и не хранит электронные версии произведений, а лишь предоставляет доступ к создаваемому пользователями каталогу ссылок на торрент-файлы, которые содержат только списки хеш-сумм

[Профиль] [ЛС]
Показать сообщения:    
Ответить на тему

Текущее время: Сегодня 18:06

Часовой пояс: GMT + 4



Вы не можете начинать темы
Вы не можете отвечать на сообщения
Вы не можете редактировать свои сообщения
Вы не можете удалять свои сообщения
Вы не можете голосовать в опросах
Вы не можете прикреплять файлы к сообщениям
Вы не можете скачивать файлы