Голгофа / Calvary (Джон Майкл МакДона / John Michael McDonagh) [2014, Ирландия, Великобритания, драма, комедия, BDRip-AVC] MVO + Original (Eng) + Sub (Rus)

Ответить на тему
 
Автор Сообщение

user ®

Стаж: 7 лет 7 месяцев

Сообщений: 20008

Пост Пост: #1 от 26-Июн-2014 20:55

[Цитировать]

Голгофа / Calvary
Страна: Ирландия, Великобритания
Жанр: драма, комедия
Год выпуска: 2014
Продолжительность: 01:41:30
Перевод: Профессиональный (многоголосый закадровый) |
Cубтитры: русские
Оригинальная аудиодорожка: английский
Режиссер: Джон Майкл МакДона / John Michael McDonagh
В ролях: Брендан Глисон, Крис О’Дауд, Келли Райлли, Эйден Гиллен, Дилан Моран, Исаак Де Банколе, М. Эммет Уолш, Мари-Жозе Кроз, Донал Глисон, Дэвид Уилмот
Описание: Давно не было такой недельки у отца Джеймса: исповедь, начинающая со слов «я собираюсь вас убить», поджог церкви и драка в пабе. Быть священником и направлять свою паству непросто. Без чувства юмора, иронии и прощения не обойтись...

Исходник: Голгофа / Calvary (2014) Blu-ray 1080p AVC DTS-HD 5.1
Качество видео: BDRip-AVC | sample
Формат видео: MKV
Видео кодек: x264
Видео: AVC 1120x476 (2.35:1), 23.976 fps, ~2100 Kbps, 0.16 bit/pixel
Аудио #1: Russian AC3 6ch 48kHz 448Kbps | MVO
Аудио #2: English AC3 6ch 48kHz 448Kbps | Original
Формат субтитров: softsub (SRT)
Главы: есть

MediaInfo | x264
x264
--[Information] [26.06.2014 3:34:09] raw [info]: 1120x476p 1:1 @ 5000000/208333 fps (cfr)
--[Information] [26.06.2014 12:52:07] x264 [info]: frame I:1152 Avg QP:14.31 size: 73932
--[Information] [26.06.2014 12:52:07] x264 [info]: frame P:27108 Avg QP:15.47 size: 23141
--[Information] [26.06.2014 12:52:07] x264 [info]: frame B:117901 Avg QP:17.07 size: 7430
--[Information] [26.06.2014 12:52:07] x264 [info]: consecutive B-frames: 1.3% 1.1% 3.2% 18.8% 18.2% 29.1% 6.6% 6.8% 5.2% 3.7% 1.5% 1.3% 0.5% 0.7% 2.0%
--[Information] [26.06.2014 12:52:07] x264 [info]: kb/s:2086.65
General
Complete name : E:\...\Calvary.2014.RUS.BDRip.x264.DD5.1.Rus.Eng-E76.mkv
Format : Matroska
Format version : Version 2
File size : 2.12 GiB
Duration : 1h 41mn
Overall bit rate : 2 985 Kbps
Movie name : Calvary.2014.RUS.BDRip.x264.DD5.1.Rus.Eng-E76
Encoded date : UTC 2014-06-26 11:53:33
Writing application : mkvmerge v6.5.0 ('Isn't she lovely') built on Oct 20 2013 12:50:05
Writing library : libebml v1.3.0 + libmatroska v1.4.1
Video
ID : 1
Format : AVC
Format/Info : Advanced Video Codec
Format profile : High@L4.1
Format settings, CABAC : Yes
Format settings, ReFrames : 12 frames
Codec ID : V_MPEG4/ISO/AVC
Duration : 1h 41mn
Bit rate : 2 029 Kbps
Width : 1 120 pixels
Height : 476 pixels
Display aspect ratio : 2.35:1
Frame rate mode : Constant
Frame rate : 24.000 fps
Color space : YUV
Chroma subsampling : 4:2:0
Bit depth : 8 bits
Scan type : Progressive
Bits/(Pixel*Frame) : 0.159
Stream size : 1.44 GiB (68%)
Title : Encode by E76
Writing library : x264 core 142 r2431kMod ac76440
Encoding settings : cabac=1 / ref=12 / deblock=1:-3:-3 / analyse=0x3:0x113 / me=umh / subme=11 / psy=1 / fade_compensate=0.00 / psy_rd=1.00:0.00 / mixed_ref=1 / me_range=48 / chroma_me=1 / trellis=2 / 8x8dct=1 / cqm=0 / deadzone=21,11 / fast_pskip=1 / chroma_qp_offset=-2 / threads=6 / lookahead_threads=1 / sliced_threads=0 / nr=0 / decimate=1 / interlaced=0 / bluray_compat=0 / constrained_intra=0 / fgo=0 / bframes=14 / b_pyramid=2 / b_adapt=2 / b_bias=0 / direct=1 / weightb=1 / open_gop=0 / weightp=2 / keyint=240 / keyint_min=24 / scenecut=40 / intra_refresh=0 / rc_lookahead=0 / rc=crf / mbtree=0 / crf=18.2500 / qcomp=0.65 / qpmin=0 / qpmax=69 / qpstep=4 / vbv_maxrate=50000 / vbv_bufsize=62500 / crf_max=0.0 / nal_hrd=none / filler=0 / ip_ratio=1.40 / pb_ratio=1.30 / aq=3:1.00 / zones=139484,146160,q=30
Language : English
Default : Yes
Forced : No
Matrix coefficients : BT.709
Audio #1
ID : 2
Format : AC-3
Format/Info : Audio Coding 3
Mode extension : CM (complete main)
Format settings, Endianness : Big
Codec ID : A_AC3
Duration : 1h 41mn
Bit rate mode : Constant
Bit rate : 448 Kbps
Channel(s) : 6 channels
Channel positions : Front: L C R, Side: L R, LFE
Sampling rate : 48.0 KHz
Bit depth : 16 bits
Compression mode : Lossy
Stream size : 325 MiB (15%)
Title : MVO BD
Language : Russian
Default : Yes
Forced : No
Audio #2
ID : 3
Format : AC-3
Format/Info : Audio Coding 3
Mode extension : CM (complete main)
Format settings, Endianness : Big
Codec ID : A_AC3
Duration : 1h 41mn
Bit rate mode : Constant
Bit rate : 448 Kbps
Channel(s) : 6 channels
Channel positions : Front: L C R, Side: L R, LFE
Sampling rate : 48.0 KHz
Bit depth : 16 bits
Compression mode : Lossy
Stream size : 325 MiB (15%)
Title : Original
Language : English
Default : No
Forced : No
Text
ID : 4
Format : UTF-8
Codec ID : S_TEXT/UTF8
Codec ID/Info : UTF-8 Plain Text
Title : BD
Language : Russian
Default : No
Forced : No
Menu
00:00:00.000 : en:00:00:00.000
00:09:51.125 : en:00:09:51.125
...
01:36:53.167 : en:01:36:53.167
Скриншоты
Скачать

Скачать торрент!

Как скачивать? · Что такое торрент? · Рейтинг и ограничения

Сайт не распространяет и не хранит электронные версии произведений, а лишь предоставляет доступ к создаваемому пользователями каталогу ссылок на торрент-файлы, которые содержат только списки хеш-сумм

[Профиль] [ЛС]
Показать сообщения:    
Ответить на тему

Текущее время: Сегодня 20:12

Часовой пояс: GMT + 4



Вы не можете начинать темы
Вы не можете отвечать на сообщения
Вы не можете редактировать свои сообщения
Вы не можете удалять свои сообщения
Вы не можете голосовать в опросах
Вы не можете прикреплять файлы к сообщениям
Вы не можете скачивать файлы