Жестокий ринг / Victor Young Perez (Жак Уаниш / Jacques Ouaniche) [2013, Болгария, Франция, Израиль, Драма, биография, история, спорт, WEB-DL 720p] Dub (iTunes)

Ответить на тему
 
Автор Сообщение

user ®

Стаж: 7 лет 7 месяцев

Сообщений: 20008

Пост Пост: #1 от 25-Июн-2014 23:50

[Цитировать]

Жестокий ринг / Victor Young Perez
Страна: Болгария, Франция, Израиль
Жанр: Драма, биография, история, спорт
Год выпуска: 2013
Продолжительность: 01:49:57
Перевод: Профессиональный (дублированный) iTunes
Cубтитры: нет
Режиссер: Жак Уаниш / Jacques Ouaniche
В ролях: Брахим Аслум, Стив Суисса, Изабелла Орсини, Патрик Бушите, Дави Сарду, Брюс Пэйн, Ромен Канонн, Алаа Омузун, Рома
Описание: Историческая драма, основанная на реальной истории Виктора Переса, который стал чемпионом мира по боксу в 1930-е годы в Париже и был женат на знаменитой французской актрисе. Из-за его еврейского происхождения он был депортирован в Освенцим…

Сэмпл: https://yadi.sk/d/DgTnmetWU2ZUD
Качество видео: WEB-DL 720p
Формат видео: MKV
Видео: AVC, 1280x532 (2.40:1), 24.000 fps, 3 870 Kbps (0.237 bit/pixel)
Аудио: AC-3, 48.0 KHz, 6 ch, 384 Kbps, CBR (Russian)
MediaInfo
Общее
Уникальный идентификатор : 225991064003088550880231729945743136769 (0xAA044BB5243145239CB04B902F571801)
Полное имя : K:\Jestokiy.Ring.2014.D.WEB-DL_720P_EPIDEMZ.NET\Jestokiy.Ring.2014.D.WEB-DL_720P.mkv
Формат : Matroska
Версия формата : Version 2
Размер файла : 3,33 Гбайт
Продолжительность : 1 ч. 49 м.
Общий поток : 4340 Кбит/сек
Дата кодирования : UTC 2014-06-18 22:57:41
Программа кодирования : mkvmerge v7.0.0 ('Where We Going') 64bit built on Jun 9 2014 15:16:27
Библиотека кодирования : libebml v1.3.0 + libmatroska v1.4.1
DURATION : 01:49:57.184000000
NUMBER_OF_FRAMES : 206162
NUMBER_OF_BYTES : 316664832
_STATISTICS_WRITING_APP : mkvmerge v7.0.0 ('Where We Going') 64bit built on Jun 9 2014 15:16:27
_STATISTICS_WRITING_DATE_UTC : 2014-06-18 22:57:41
_STATISTICS_TAGS : BPS DURATION NUMBER_OF_FRAMES NUMBER_OF_BYTES
Видео
Идентификатор : 1
Формат : AVC
Формат/Информация : Advanced Video Codec
Профиль формата : Main@L3.1
Параметр CABAC формата : Нет
Параметр ReFrames формата : 2 кадра
Идентификатор кодека : V_MPEG4/ISO/AVC
Продолжительность : 1 ч. 49 м.
Битрейт : 3870 Кбит/сек
Ширина : 1280 пикселей
Высота : 532 пикселя
Соотношение сторон : 2,40:1
Режим частоты кадров : Постоянный
Частота кадров : 24,000 кадра/сек
Цветовое пространство : YUV
Субдискретизация насыщенности : 4:2:0
Битовая глубина : 8 бит
Тип развёртки : Прогрессивная
Бит/(Пиксели*Кадры) : 0.237
Размер потока : 2,97 Гбайт (89%)
Язык : English
Default : Да
Forced : Нет
Основные цвета : BT.709
Характеристики трансфера : BT.709
Коэффициенты матрицы : BT.709
Аудио
Идентификатор : 2
Формат : AC-3
Формат/Информация : Audio Coding 3
Расширение режима : CM (complete main)
Параметр Endianness формата : Big
Идентификатор кодека : A_AC3
Продолжительность : 1 ч. 49 м.
Вид битрейта : Постоянный
Битрейт : 384 Кбит/сек
Каналы : 6 каналов
Расположение каналов : Front: L C R, Side: L R, LFE
Частота : 48,0 КГц
Битовая глубина : 16 бит
Метод сжатия : С потерями
Размер потока : 302 Мбайт (9%)
Язык : Russian
Default : Да
Forced : Нет
Меню
00:00:00.000 : en:Глава 1
00:07:52.000 : en:Глава 2
00:13:05.000 : en:Глава 3
00:18:06.000 : en:Глава 4
00:23:11.000 : en:Глава 5
00:28:13.000 : en:Глава 6
00:33:20.000 : en:Глава 7
00:38:21.000 : en:Глава 8
00:43:49.000 : en:Глава 9
00:49:09.000 : en:Глава 10
00:54:19.000 : en:Глава 11
00:59:27.000 : en:Глава 12
01:04:33.000 : en:Глава 13
01:09:36.000 : en:Глава 14
01:14:47.000 : en:Глава 15
01:19:50.000 : en:Глава 16
01:24:52.000 : en:Глава 17
01:30:17.000 : en:Глава 18
01:35:18.000 : en:Глава 19
01:40:20.000 : en:Глава 20
Скриншоты
Скачать

Скачать торрент!

Как скачивать? · Что такое торрент? · Рейтинг и ограничения

Сайт не распространяет и не хранит электронные версии произведений, а лишь предоставляет доступ к создаваемому пользователями каталогу ссылок на торрент-файлы, которые содержат только списки хеш-сумм

[Профиль] [ЛС]
Показать сообщения:    
Ответить на тему

Текущее время: Сегодня 00:42

Часовой пояс: GMT + 4



Вы не можете начинать темы
Вы не можете отвечать на сообщения
Вы не можете редактировать свои сообщения
Вы не можете удалять свои сообщения
Вы не можете голосовать в опросах
Вы не можете прикреплять файлы к сообщениям
Вы не можете скачивать файлы