День труда / Labor Day (Джейсон Райтман / Jason Reitman) [2013, США, драма, BDRip 1080p] Dub + Original (Eng) + Sub (Rus, Eng, Ukr)

Ответить на тему
 
Автор Сообщение

user ®

Стаж: 7 лет 7 месяцев

Сообщений: 20008

Пост Пост: #1 от 25-Июн-2014 23:50

[Цитировать]

День труда / Labor Day
Страна: США
Производство: Indian Paintbrush, Mr. Mudd, Right of Way Films
Жанр: драма
Год выпуска: 2013
Продолжительность: 01:51:13
Перевод: Профессиональный (дублированный) Blu-ray CEE
Оригинальная аудиодорожка: английская
Cубтитры: русские, английские (Full, SDH, SDH-Colored), украинские
Режиссер: Джейсон Райтман / Jason Reitman
В ролях: Кейт Уинслет, Джош Бролин, Гэттлин Гриффит, Тоби Магуайр, Том Липински, Майка Монро, Кларк Грегг, Джеймс Ван Дер Бик, Дж.К. Симмонс, Брук Смит
Описание: Одинокая мать укрывает беглого убийцу в своем доме, где живет вместе с сыном. Полиция обшаривает весь городок в поисках преступника, а мать-одиночка, тем временем, узнает о своем «госте» горькую правду и перестает понимать, что же ей делать.

Релиз: fanatus
Качество видео: BDRip 1080p
Исходник: Labor Day (2013) Blu-ray CEE 1080p AVC DD5.1-TTG
Контейнер: MKV
Видео: MPEG-4 AVC, 11.5 Mbps , 1920x800 (2.40:1), 23.976 fps, 0.312 bit/pixel
Аудио 1: русский (AC3, 6 ch, 48 kHz, 640 kbps)
Аудио 2: английский (DTS, 6 ch, 48 kHz, 1510 kbps)
Формат субтитров: softsub (SRT)
Главы: есть
MediaInfo
General
Unique ID : 227231175966509680054995290633029445292 (0xAAF321F2AD924C2C8E5349AFAB1666AC)
Complete name : E:\Denj_truda.2013.x264.BDRip.1080p.fanatus.mkv
Format : Matroska
Format version : Version 2
File size : 10.6 GiB
Duration : 1h 51mn
Overall bit rate : 13.6 Mbps
Movie name : Labor Day (2013) - fanatus
Encoded date : UTC 2014-06-23 20:16:05
Writing application : mkvmerge v3.4.0 ('Rapunzel') сборка от May 15 2010 09:38:20
Writing library : libebml v0.8.0 + libmatroska v0.9.0
Attachment : Yes
Video
ID : 1
Format : AVC
Format/Info : Advanced Video Codec
Format profile : High@L4.1
Format settings, CABAC : Yes
Format settings, ReFrames : 5 frames
Codec ID : V_MPEG4/ISO/AVC
Duration : 1h 51mn
Bit rate : 11.5 Mbps
Width : 1 920 pixels
Height : 800 pixels
Display aspect ratio : 2.40:1
Frame rate : 23.976 fps
Color space : YUV
Chroma subsampling : 4:2:0
Bit depth : 8 bits
Scan type : Progressive
Bits/(Pixel*Frame) : 0.312
Stream size : 8.72 GiB (82%)
Title : Labor Day (2013) BDRip(1080p)
Writing library : x264 core 142 r2431+42 c69a006 tMod [8-bit@all X86]
Encoding settings : cabac=1 / ref=5 / deblock=1:-3:-3 / analyse=0x3:0x113 / me=tesa / subme=11 / psy=1 / fade_compensate=0.00 / psy_rd=1.00:0.10 / mixed_ref=1 / me_range=64 / chroma_me=1 / trellis=2 / 8x8dct=1 / cqm=0 / deadzone=21,11 / fast_pskip=0 / chroma_qp_offset=-3 / threads=16 / lookahead_threads=4 / sliced_threads=0 / nr=0 / decimate=0 / interlaced=0 / bluray_compat=0 / constrained_intra=0 / fgo=0 / bframes=10 / b_pyramid=2 / b_adapt=2 / b_bias=0 / direct=3 / weightb=1 / open_gop=0 / weightp=2 / keyint=240 / keyint_min=23 / scenecut=40 / intra_refresh=0 / rc_lookahead=240 / rc=2pass / mbtree=1 / bitrate=11500 / ratetol=1.0 / qcomp=0.60 / qpmin=0:0:0 / qpmax=69:69:69 / qpstep=4 / cplxblur=20.0 / qblur=0.5 / vbv_maxrate=50000 / vbv_bufsize=62500 / nal_hrd=none / filler=0 / ip_ratio=1.40 / aq=4:0.80 / aq-sensitivity=10.00 / aq-factor=1.00:1.00:1.00 / aq2=0 / aq3=0
Language : English
Default : Yes
Forced : No
Audio #1
ID : 2
Format : AC-3
Format/Info : Audio Coding 3
Mode extension : CM (complete main)
Format settings, Endianness : Big
Codec ID : A_AC3
Duration : 1h 51mn
Bit rate mode : Constant
Bit rate : 640 Kbps
Channel(s) : 6 channels
Channel positions : Front: L C R, Side: L R, LFE
Sampling rate : 48.0 KHz
Bit depth : 16 bits
Compression mode : Lossy
Stream size : 509 MiB (5%)
Title : Dub (BluRay CEE)
Language : Russian
Default : Yes
Forced : No
Audio #2
ID : 3
Format : DTS
Format/Info : Digital Theater Systems
Codec ID : A_DTS
Duration : 1h 51mn
Bit rate mode : Constant
Bit rate : 1 510 Kbps
Channel(s) : 6 channels
Channel positions : Front: L C R, Side: L R, LFE
Sampling rate : 48.0 KHz
Bit depth : 24 bits
Compression mode : Lossy
Stream size : 1.17 GiB (11%)
Title : Original
Language : English
Default : No
Forced : No
Text #1
ID : 4
Format : UTF-8
Codec ID : S_TEXT/UTF8
Codec ID/Info : UTF-8 Plain Text
Title : Full
Language : Russian
Default : No
Forced : No
Text #2
ID : 5
Format : UTF-8
Codec ID : S_TEXT/UTF8
Codec ID/Info : UTF-8 Plain Text
Title : Full
Language : English
Default : No
Forced : No
Text #3
ID : 6
Format : UTF-8
Codec ID : S_TEXT/UTF8
Codec ID/Info : UTF-8 Plain Text
Title : SDH
Language : English
Default : No
Forced : No
Text #4
ID : 7
Format : UTF-8
Codec ID : S_TEXT/UTF8
Codec ID/Info : UTF-8 Plain Text
Title : SDH-Colored
Language : English
Default : No
Forced : No
Text #5
ID : 8
Format : UTF-8
Codec ID : S_TEXT/UTF8
Codec ID/Info : UTF-8 Plain Text
Title : Full
Language : Ukrainian
Default : No
Forced : No
Menu
00:00:00.000 : en:Chapter 01
00:06:36.312 : en:Chapter 02
00:12:46.640 : en:Chapter 03
00:18:25.020 : en:Chapter 04
00:25:39.162 : en:Chapter 05
00:33:48.359 : en:Chapter 06
00:41:06.213 : en:Chapter 07
00:48:19.479 : en:Chapter 08
00:57:00.458 : en:Chapter 09
01:07:58.032 : en:Chapter 10
01:13:12.346 : en:Chapter 11
01:19:58.752 : en:Chapter 12
01:22:27.943 : en:Chapter 13
01:29:03.254 : en:Chapter 14
01:33:53.252 : en:Chapter 15
01:46:36.932 : en:Chapter 16
01:51:13.416 : en:Chapter 17
x264 [info]
x264 [info]: 1920x800p 1:1 @ 24000/1001 fps (cfr)
x264 [info]: started at Sat Jun 21 18:35:43 2014
x264 [info]: frame I:1134 Avg QP:10.81 size:313329
x264 [info]: frame P:36510 Avg QP:13.96 size:129626
x264 [info]: frame B:122364 Avg QP:16.18 size: 36794
x264 [info]: consecutive B-frames: 2.6% 5.3% 6.3% 25.5% 13.8% 28.0% 7.5% 8.5% 1.4% 0.3% 0.7%
x264 [info]: mb I I16..4: 15.7% 53.1% 31.2%
x264 [info]: mb P I16..4: 1.4% 12.7% 3.2% P16..4: 25.9% 36.1% 18.3% 0.0% 0.0% skip: 2.3%
x264 [info]: mb B I16..4: 0.1% 1.6% 0.3% B16..8: 33.4% 24.8% 5.6% direct: 8.4% skip:25.7% L0:43.3% L1:39.0% BI:17.6%
x264 [info]: 8x8 transform intra:72.8% inter:38.9%
x264 [info]: direct mvs spatial:98.5% temporal:1.5%
x264 [info]: coded y,uvDC,uvAC intra: 96.2% 92.6% 83.2% inter: 36.5% 31.5% 15.8%
x264 [info]: i16 v,h,dc,p: 12% 7% 22% 58%
x264 [info]: i8 v,h,dc,ddl,ddr,vr,hd,vl,hu: 12% 12% 12% 8% 10% 10% 10% 11% 13%
x264 [info]: i4 v,h,dc,ddl,ddr,vr,hd,vl,hu: 12% 12% 8% 8% 12% 11% 12% 10% 13%
x264 [info]: i8c dc,h,v,p: 50% 20% 16% 13%
x264 [info]: Weighted P-Frames: Y:2.7% UV:1.3%
x264 [info]: ref P L0: 51.8% 8.4% 23.0% 7.9% 8.4% 0.5% 0.0%
x264 [info]: ref B L0: 80.5% 14.4% 3.9% 1.2%
x264 [info]: ref B L1: 94.3% 5.7%
x264 [info]: kb/s:11496.25
x264 [info]: encoded 160008 frames, 0.8460 fps, 11496.25 kb/s, 9146.0 MB
x264 [info]: ended at Mon Jun 23 23:07:53 2014
x264 [info]: encoding duration 52:32:10
Скриншот c названием фильма Скриншоты Source vs Rip
Скачать

Скачать торрент!

Как скачивать? · Что такое торрент? · Рейтинг и ограничения

Сайт не распространяет и не хранит электронные версии произведений, а лишь предоставляет доступ к создаваемому пользователями каталогу ссылок на торрент-файлы, которые содержат только списки хеш-сумм

[Профиль] [ЛС]
Показать сообщения:    
Ответить на тему

Текущее время: Сегодня 00:06

Часовой пояс: GMT + 4



Вы не можете начинать темы
Вы не можете отвечать на сообщения
Вы не можете редактировать свои сообщения
Вы не можете удалять свои сообщения
Вы не можете голосовать в опросах
Вы не можете прикреплять файлы к сообщениям
Вы не можете скачивать файлы