Прыжок Гепарда / Гепард / Малыш / Chirutha (Пури Джаганатх / Puri Jagannath) [2007, Индия, Боевик, романтика, WEB-DLRip] MVO (Red Media)

Ответить на тему
 
Автор Сообщение

user ®

Стаж: 12 лет

Сообщений: 15092

Пост Пост: #1 от 25-Июн-2014 11:55

[Цитировать]

Гепард / Chirutha
-Страна: Индия
Жанр: Боевик, романтика
Год выпуска: 2007
Продолжительность: 02:24:14-Перевод: Профессиональный (многоголосый закадровый) - Red Media [Индия ТВ]
Субтитры: Нет--Режиссер: Пури Джаганнатх / Puri Jagannath-В ролях: Рам Чаран Теджа, Неха Шарма, Пракаш Радж, Али-Описание: У Чарана было ужасное детство. Его отца убивают на его глазах, а мать сильно ранят. Чтобы спасти её, он соглашается отсидеть в тюрьме 12 лет. Выйдя из тюрьмы. он узнает, что его мать умерла. Чаран устраивается в туристическую компанию в Бангкоке. Санджана - дочь очень богатого человека. Она прилетает в Бангкок, чтобы отдохнуть с подружками.-- | --Качество видео: WEB-DLRip
Формат видео: AVI-Видео: 688x288 (2.39:1), 25 fps, XviD build 50 ~1310 kbps avg, 0.26 bit/pixel
Аудио: 48 kHz, MPEG Layer 3, 2 ch, ~128.00 kbps-Сэмпл / Sample
-
Риппер, сведение звука: soso4eg-- -
-
Скриншот с названием:
-
-Скриншоты
-
MI
-Общее
Полное имя : K:\Релизы\Vodovorot.Sudby.1996.DVDRip.XviD.soso4eg.avi
Формат : AVI
Формат/Информация : Audio Video Interleave
Размер файла : 1,46 Гбайт
Продолжительность : 2 ч. 25 м.
Общий поток : 1434 Кбит/сек
Название фильма : Vodovorot.Sudby.1996.DVDRip.XviD.soso4eg
Режиссёр : soso4eg
Программа кодирования : VirtualDubMod 1.5.10.3 | www.virtualdub-fr.org || (build 2550/release)
Правообладатель : специально для BitTorrent трекер *** (ex torrents.ru)
Примечание : пер. VO
Видео
Идентификатор : 0
Формат : MPEG-4 Visual
Профиль формата : Advanced Simple@L5
Параметр BVOP формата : 2
Параметр QPel формата : Нет
Параметр GMC формата : Без точки перехода
Параметр матрицы формата : Default (H.263)
Идентификатор кодека : XVID
Идентификатор кодека/Подсказка : XviD
Продолжительность : 2 ч. 25 м.
Битрейт : 1297 Кбит/сек
Ширина : 704 пикселя
Высота : 336 пикселей
Соотношение сторон : 2,095
Частота кадров : 23,976 кадра/сек
Цветовое пространство : YUV
Субдискретизация насыщенности : 4:2:0
Битовая глубина : 8 бит
Тип развёртки : Прогрессивная
Метод сжатия : С потерями
Бит/(Пиксели*Кадры) : 0.229
Размер потока : 1,32 Гбайт (90%)
Библиотека кодирования : XviD 1.2.1 (UTC 2008-12-04)
Аудио
Идентификатор : 1
Формат : MPEG Audio
Версия формата : Version 1
Профиль формата : Layer 3
Режим : Joint stereo
Расширение режима : MS Stereo
Идентификатор кодека : 55
Идентификатор кодека/Подсказка : MP3
Продолжительность : 2 ч. 25 м.
Вид битрейта : Постоянный
Битрейт : 128 Кбит/сек
Каналы : 2 канала
Частота : 44,1 КГц
Метод сжатия : С потерями
Размер потока : 133 Мбайт (9%)
Выравнивание : Разделение по промежуткам
Продолжительность промежутка : 42 мс. (1,00 видеокадр)
Время предзагрузки промежутка : 500 мс.

-
-
Скачать

Скачать торрент! Прыжок Гепарда / Гепард / Малыш / Chirutha (Пури Джаганатх / Puri Jagannath) [2007, Индия, Боевик, романтика, WEB-DLRip] MVO (Red Media)

Как скачивать? · Что такое торрент? · Рейтинг и ограничения

Сайт не распространяет и не хранит электронные версии произведений, а лишь предоставляет доступ к создаваемому пользователями каталогу ссылок на торрент-файлы, которые содержат только списки хеш-сумм

[Профиль] [ЛС]
Показать сообщения:    
Ответить на тему

Текущее время: Сегодня 16:24

Часовой пояс: GMT + 4



Вы не можете начинать темы
Вы не можете отвечать на сообщения
Вы не можете редактировать свои сообщения
Вы не можете удалять свои сообщения
Вы не можете голосовать в опросах
Вы не можете прикреплять файлы к сообщениям
Вы не можете скачивать файлы