Голгофа / Calvary (Джон Майкл МакДона / John Michael McDonagh) [2014, Ирландия, Великобритания, Драма, комедия, HDRip] MVO

Ответить на тему
 
Автор Сообщение

user ®

Стаж: 7 лет 7 месяцев

Сообщений: 20008

Пост Пост: #1 от 25-Июн-2014 11:55

[Цитировать]

Голгофа / Calvary
Страна: Ирландия, Великобритания
Жанр: Драма, комедия
Год выпуска: 2014
Продолжительность: 01:41:30
Перевод: Профессиональный (многоголосый закадровый) | Лицензия
Cубтитры: нет
Режиссер: Джон Майкл МакДона / John Michael McDonagh
В ролях: Брендан Глисон, Крис О’Дауд, Келли Райлли, Эйден Гиллен, Дилан Моран, Исаак Де Банколе, М. Эммет Уолш, Мари-Жозе Кроз, Донал Глисон, Дэвид Уилмот
Описание: Давно не было такой недельки у отца Джеймса: исповедь, начинающая со слов «я собираюсь вас убить», поджог церкви и драка в пабе. Быть священником и направлять свою паству непросто. Без чувства юмора, иронии и прощения не обойтись.

Сэмпл: http://sendfile.su/991478
Качество видео: HDRip
Формат видео: AVI
Видео: 720x304 (2.37:1), 24 fps, XviD build 50 ~1470 kbps avg, 0.28 bit/pixel
Аудио: 48 kHz, AC3 Dolby Digital, 3/2 (L,C,R,l,r) + LFE ch, ~448 kbps

Берлинский кинофестиваль, 2014 год
Победитель:
Приз экуменического (христианского) жюри (программа «Панорама»)
MediaInfo
Общее
Полное имя : K:\G0lg0fa.2014.P.HDRip.1400Mb.avi
Формат : AVI
Формат/Информация : Audio Video Interleave
Размер файла : 1,37 Гбайт
Продолжительность : 1 ч. 41 м.
Общий поток : 1928 Кбит/сек
Программа кодирования : VirtualDubMod 1.5.10.2 (build 2540/release)
Библиотека кодирования : VirtualDubMod build 2540/release
Видео
Идентификатор : 0
Формат : MPEG-4 Visual
Профиль формата : Advanced Simple@L5
Параметр BVOP формата : 2
Параметр QPel формата : Нет
Параметр GMC формата : Без точки перехода
Параметр матрицы формата : Выборочная
Идентификатор кодека : XVID
Идентификатор кодека/Подсказка : XviD
Продолжительность : 1 ч. 41 м.
Битрейт : 1471 Кбит/сек
Ширина : 720 пикселей
Высота : 304 пикселя
Соотношение сторон : 2,35:1
Частота кадров : 24,000 кадра/сек
Цветовое пространство : YUV
Субдискретизация насыщенности : 4:2:0
Битовая глубина : 8 бит
Тип развёртки : Прогрессивная
Метод сжатия : С потерями
Бит/(Пиксели*Кадры) : 0.280
Размер потока : 1,04 Гбайт (76%)
Библиотека кодирования : XviD 1.2.1 (UTC 2008-12-04)
Аудио
Идентификатор : 1
Формат : AC-3
Формат/Информация : Audio Coding 3
Расширение режима : CM (complete main)
Параметр Endianness формата : Big
Идентификатор кодека : 2000
Продолжительность : 1 ч. 41 м.
Вид битрейта : Постоянный
Битрейт : 448 Кбит/сек
Каналы : 6 каналов
Расположение каналов : Front: L C R, Side: L R, LFE
Частота : 48,0 КГц
Битовая глубина : 16 бит
Метод сжатия : С потерями
Размер потока : 325 Мбайт (23%)
Выравнивание : Разделение по промежуткам
Продолжительность промежутка : 42 мс. (1,00 видеокадр)
Время предзагрузки промежутка : 500 мс.
Скриншоты
Скачать

Скачать торрент!

Как скачивать? · Что такое торрент? · Рейтинг и ограничения

Сайт не распространяет и не хранит электронные версии произведений, а лишь предоставляет доступ к создаваемому пользователями каталогу ссылок на торрент-файлы, которые содержат только списки хеш-сумм

[Профиль] [ЛС]
Показать сообщения:    
Ответить на тему

Текущее время: Сегодня 10:04

Часовой пояс: GMT + 4



Вы не можете начинать темы
Вы не можете отвечать на сообщения
Вы не можете редактировать свои сообщения
Вы не можете удалять свои сообщения
Вы не можете голосовать в опросах
Вы не можете прикреплять файлы к сообщениям
Вы не можете скачивать файлы