Первый Удар / Jackie Chan\'s First Strike (Стэнли Тонг / Stanley Tong) [1996, США, Австралия, Гонконг, боевик, приключения, комедия, DVDRip] [Американская Версия] MVO (REN-TV) + MVO (НТВ) + AVO (Горчаков)

Ответить на тему
 
Автор Сообщение

user ®

Стаж: 13 лет

Сообщений: 15071

Пост Пост: #1 от 25-Июн-2014 00:00

[Цитировать]

Первый Удар / Jackie Chan's First Strike / Американская Версия
Страна: США, Австралия, Гонконг
Жанр: боевик, приключения, комедия
Год выпуска: 1996
Продолжительность: 01:23:47
Перевод: Профессиональный (многоголосый закадровый) REN-TV
Перевод 2: Профессиональный (многоголосый закадровый) НТВ
Перевод 3: Авторский (одноголосый закадровый) Василий Горчаков
Cубтитры: нет
Режиссер: Стэнли Тонг / Stanley Tong
В ролях: Джеки Чан, Джексон Лью, Энни Ву, Билл Тун, Юрий Петров, Нонна Гришаева, Джон Ивис, Терри Ву, Кристофер Казмарек, Эйлен Сит
Описание: Агенту ЦРУ Джеки поручают следить за шпионкой Наташей, которая купила тур на Украину. Джеки надеется выследить, с кем будет контактировать девушка, но она скрывается. Джеки бросается в погоню. Он гонится за ней по Австралии и России. Главная его задача — остаться в живых и поймать Тсуи, сообщника Наташи, похитившего ядерную боеголовку. Тсуи оказывается ее любовником, бывшим сотрудником ЦРУ. Его завербовал сотрудник КГБ Егоров, лидер русской мафии.
Качество видео: DVDRip
Формат видео: AVI
Видео: XviD, 720x304 (2,35:1), 25.000 fps, 1978 kbps avg
Аудио:
1 - 48 khz, AC3 Dolby Digital, 2/0 (L,R) ch, ~192 kbps [REN-TV / 7ТВ / ТВ3] SATRip
2 - 48 khz, AC3 Dolby Digital, 2/0 (L,R) ch, ~192 kbps [НТВ / НТВ+] VHSRip
3 - 48 khz, AC3 Dolby Digital, 2/0 (L,R) ch, ~192 kbps [Горчаков] VHSRip
Mediainfo
Общее
Полное имя : E:\Альберт\Downloads\Первый Удар.avi
Формат : AVI
Формат/Информация : Audio Video Interleave
Размер файла : 1,44 Гбайт
Продолжительность : 1 ч. 20 м.
Общий поток : 2574 Кбит/сек
Программа кодирования : VirtualDubMod 1.5.10.2 (build 2540/release)
Библиотека кодирования : VirtualDubMod build 2540/release
Видео
Идентификатор : 0
Формат : MPEG-4 Visual
Профиль формата : Advanced Simple@L5
Параметр BVOP формата : 1
Параметр QPel формата : Нет
Параметр GMC формата : Без точки перехода
Параметр матрицы формата : Выборочная
Идентификатор кодека : XVID
Идентификатор кодека/Подсказка : XviD
Продолжительность : 1 ч. 20 м.
Битрейт : 1978 Кбит/сек
Ширина : 720 пикселей
Высота : 304 пикселя
Соотношение сторон : 2,35:1
Частота кадров : 25,000 кадров/сек
Цветовое пространство : YUV
Субдискретизация насыщенности : 4:2:0
Битовая глубина : 8 бит
Тип развёртки : Прогрессивная
Метод сжатия : С потерями
Бит/(Пиксели*Кадры) : 0.362
Размер потока : 1,11 Гбайт (77%)
Библиотека кодирования : XviD 1.1.0 RC (UTC 2005-11-22)
Аудио #1
Идентификатор : 1
Формат : AC-3
Формат/Информация : Audio Coding 3
Расширение режима : CM (complete main)
Параметр Endianness формата : Big
Идентификатор кодека : 2000
Продолжительность : 1 ч. 20 м.
Вид битрейта : Постоянный
Битрейт : 192 Кбит/сек
Каналы : 2 канала
Расположение каналов : Front: L R
Частота : 48,0 КГц
Битовая глубина : 16 бит
Метод сжатия : С потерями
Размер потока : 110 Мбайт (7%)
Выравнивание : Разделение по промежуткам
Продолжительность промежутка : 40 мс. (1,00 видеокадр)
Время предзагрузки промежутка : 500 мс.
Аудио #2
Идентификатор : 2
Формат : AC-3
Формат/Информация : Audio Coding 3
Расширение режима : CM (complete main)
Параметр Endianness формата : Big
Идентификатор кодека : 2000
Продолжительность : 1 ч. 20 м.
Вид битрейта : Постоянный
Битрейт : 192 Кбит/сек
Каналы : 2 канала
Расположение каналов : Front: L R
Частота : 48,0 КГц
Битовая глубина : 16 бит
Метод сжатия : С потерями
Размер потока : 110 Мбайт (7%)
Выравнивание : Разделение по промежуткам
Продолжительность промежутка : 40 мс. (1,00 видеокадр)
Время предзагрузки промежутка : 500 мс.
Аудио #3
Идентификатор : 3
Формат : AC-3
Формат/Информация : Audio Coding 3
Расширение режима : CM (complete main)
Параметр Endianness формата : Big
Идентификатор кодека : 2000
Продолжительность : 1 ч. 20 м.
Вид битрейта : Постоянный
Битрейт : 192 Кбит/сек
Каналы : 2 канала
Расположение каналов : Front: L R
Частота : 48,0 КГц
Битовая глубина : 16 бит
Метод сжатия : С потерями
Размер потока : 110 Мбайт (7%)
Выравнивание : Разделение по промежуткам
Продолжительность промежутка : 40 мс. (1,00 видеокадр)
Время предзагрузки промежутка : 500 мс.
Скриншот c названием фильма Скриншоты
ТОРРЕНТ-ФАЙЛ ПЕРЕЗАЛИТ 24.06.2014.
Причины:
заменён видеоряд;
дорожка НТВ заменена на лучший по качеству звук;
переделана синхронизация всех переводов к видео.

Просьба перескачать торрент.
Скачать

Скачать торрент! Первый Удар / Jackie Chan\'s First Strike (Стэнли Тонг / Stanley Tong) [1996, США, Австралия, Гонконг, боевик, приключения, комедия, DVDRip] [Американская Версия] MVO (REN-TV) + MVO (НТВ) + AVO (Горчаков)

Как скачивать? · Что такое торрент? · Рейтинг и ограничения

Сайт не распространяет и не хранит электронные версии произведений, а лишь предоставляет доступ к создаваемому пользователями каталогу ссылок на торрент-файлы, которые содержат только списки хеш-сумм

[Профиль] [ЛС]
Показать сообщения:    
Ответить на тему

Текущее время: Сегодня 18:40

Часовой пояс: GMT + 4



Вы не можете начинать темы
Вы не можете отвечать на сообщения
Вы не можете редактировать свои сообщения
Вы не можете удалять свои сообщения
Вы не можете голосовать в опросах
Вы не можете прикреплять файлы к сообщениям
Вы не можете скачивать файлы