Скорый «Москва-Россия» (Игорь Волошин) [2014, Россия, комедия, приключения, BDRip 1080p]

Ответить на тему
 
Автор Сообщение

user ®

Стаж: 7 лет 7 месяцев

Сообщений: 20008

Пост Пост: #1 от 25-Июн-2014 00:00

[Цитировать]

Скорый «Москва-Россия»
Выпущено: Россия, «Bulldozerfilms»
Жанр: комедия, приключения
Год выпуска: 2014
Продолжительность: 01:24:40
Субтитры: нет
Навигация по главам: есть
Режиссер: Игорь Волошин
В ролях: Сергей Светлаков, Иван Ургант, Маргарита Левиева, Майкл Мэдсен, Максим Голополосов, Павел Деревянко, Спартак Кандауров, Артур Гургенян, Ингеборга Дапкунайте, Ольга Симонова, Виктор Проскурин, Юрий Стоянов, Михаил Ефремов, Сергей Бурунов, Мария Шалаева, Ольга Сутулова, Сабина Ахмедова, Эдуард Флёров, Юрий Скулябин, Александр Пушилин, Владимир Сороколита, Игорь Волошин, Михаил Токмовцев, Елизавета Зарубина, Андрей Шибаршин, Ёла Санько, Юлия Яблонская
Описание: Это история про парня, который душу готов продать, лишь бы набрать миллион просмотров для своего видео в youtube. На пути к цели, в скором поезде "Москва - Владивосток", он знакомится с американской актрисой, страдающей аэрофобией. В пути незнакомцев ожидают такие приключения, что они отстают от поезда, который пытаются догнать, продвигаясь по нашей непредсказуемой, и сказочной России-Матушке… Ведь каждому из них нужно оказаться во Владивостоке ровно через 7 дней, по причинам, которые они тщательно скрывают друг от друга…

Релиз: fanatus
Качество видео: BDRip 1080p
Исходник: SMR.Blu-Ray.1080i.AVC.DTS-HD.5.1
Контейнер: MKV
Видео: MPEG-4 AVC, 13.9 Mbps, 1920x826 (2.35:1), 25.000 fps, 0.351 bit/pixel
Аудио: DTS, 6 ch, 48 kHz, 1510 kbps
MediaInfo
General
Unique ID : 187439316503045108679842555042705927428 (0x8D037FCE3FE5AEA7B5F73AC1F2EF6D04)
Complete name : E:\Skoryy_Moskva-Rossiya.2014.x264.BDRip.1080p.fanatus.mkv
Format : Matroska
Format version : Version 2
File size : 9.10 GiB
Duration : 1h 24mn
Overall bit rate : 15.4 Mbps
Movie name : Skoryy 'Moskva-Rossiya' (2014) - fanatus
Encoded date : UTC 2014-06-20 06:25:15
Writing application : mkvmerge v3.4.0 ('Rapunzel') сборка от May 15 2010 09:38:20
Writing library : libebml v0.8.0 + libmatroska v0.9.0
Attachment : Yes
Video
ID : 1
Format : AVC
Format/Info : Advanced Video Codec
Format profile : High@L4.1
Format settings, CABAC : Yes
Format settings, ReFrames : 5 frames
Codec ID : V_MPEG4/ISO/AVC
Duration : 1h 24mn
Bit rate : 13.9 Mbps
Width : 1 920 pixels
Height : 826 pixels
Display aspect ratio : 2.35:1
Frame rate : 25.000 fps
Color space : YUV
Chroma subsampling : 4:2:0
Bit depth : 8 bits
Scan type : Progressive
Bits/(Pixel*Frame) : 0.351
Stream size : 8.03 GiB (88%)
Title : Skoryy 'Moskva-Rossiya' (2014) BDRip(1080p)
Writing library : x264 core 142 r2431+42 c69a006 tMod [8-bit@all X86]
Encoding settings : cabac=1 / ref=5 / deblock=1:-3:-3 / analyse=0x3:0x113 / me=tesa / subme=11 / psy=1 / fade_compensate=0.00 / psy_rd=0.90:0.00 / mixed_ref=1 / me_range=48 / chroma_me=1 / trellis=2 / 8x8dct=1 / cqm=0 / deadzone=21,11 / fast_pskip=0 / chroma_qp_offset=-2 / threads=16 / lookahead_threads=4 / sliced_threads=0 / nr=0 / decimate=0 / interlaced=0 / bluray_compat=0 / constrained_intra=0 / fgo=0 / bframes=10 / b_pyramid=2 / b_adapt=2 / b_bias=0 / direct=3 / weightb=1 / open_gop=0 / weightp=2 / keyint=240 / keyint_min=24 / scenecut=40 / intra_refresh=0 / rc_lookahead=240 / rc=2pass / mbtree=0 / bitrate=13900 / ratetol=1.0 / qcomp=0.65 / qpmin=0:0:0 / qpmax=69:69:69 / qpstep=4 / cplxblur=20.0 / qblur=0.5 / vbv_maxrate=50000 / vbv_bufsize=62500 / nal_hrd=none / filler=0 / ip_ratio=1.35 / pb_ratio=1.25 / aq=4:0.90 / aq-sensitivity=10.00 / aq-factor=1.00:1.00:1.00 / aq2=0 / aq3=0
Language : Russian
Default : Yes
Forced : No
Audio
ID : 2
Format : DTS
Format/Info : Digital Theater Systems
Codec ID : A_DTS
Duration : 1h 24mn
Bit rate mode : Constant
Bit rate : 1 510 Kbps
Channel(s) : 6 channels
Channel positions : Front: L C R, Side: L R, LFE
Sampling rate : 48.0 KHz
Bit depth : 24 bits
Compression mode : Lossy
Stream size : 914 MiB (10%)
Title : Original
Language : Russian
Default : Yes
Forced : No
Menu
00:00:00.000 : en:Chapter 01
00:04:58.799 : en:Chapter 02
00:13:18.520 : en:Chapter 03
00:18:53.040 : en:Chapter 04
00:26:36.880 : en:Chapter 05
00:32:51.680 : en:Chapter 06
00:37:36.320 : en:Chapter 07
00:46:35.320 : en:Chapter 08
00:53:10.640 : en:Chapter 09
00:59:20.439 : en:Chapter 10
01:06:59.200 : en:Chapter 11
01:17:30.000 : en:Chapter 12
01:24:39.880 : en:Chapter 13
x264 [info]
x264 [info]: 1920x826p 1:1 @ 25/1 fps (cfr)
x264 [info]: frame I:1078 Avg QP:15.41 size:214367
x264 [info]: frame P:33215 Avg QP:17.50 size:114758
x264 [info]: frame B:92707 Avg QP:19.34 size: 51493
x264 [info]: consecutive B-frames: 5.2% 5.7% 13.5% 19.6% 10.9% 41.2% 2.1% 0.3% 0.2% 0.3% 0.9%
x264 [info]: mb I I16..4: 16.0% 55.5% 28.5%
x264 [info]: mb P I16..4: 4.3% 27.7% 3.8% P16..4: 23.7% 22.2% 7.9% 0.0% 0.0% skip:10.5%
x264 [info]: mb B I16..4: 1.0% 4.6% 0.5% B16..8: 42.0% 18.6% 3.6% direct: 8.3% skip:21.3% L0:46.6% L1:36.0% BI:17.5%
x264 [info]: 8x8 transform intra:75.5% inter:57.8%
x264 [info]: direct mvs spatial:98.3% temporal:1.7%
x264 [info]: coded y,uvDC,uvAC intra: 86.4% 86.8% 65.2% inter: 44.7% 42.8% 15.2%
x264 [info]: i16 v,h,dc,p: 16% 13% 28% 43%
x264 [info]: i8 v,h,dc,ddl,ddr,vr,hd,vl,hu: 9% 9% 13% 9% 12% 12% 12% 11% 13%
x264 [info]: i4 v,h,dc,ddl,ddr,vr,hd,vl,hu: 14% 13% 20% 6% 10% 9% 9% 8% 10%
x264 [info]: i8c dc,h,v,p: 43% 24% 17% 16%
x264 [info]: Weighted P-Frames: Y:3.1% UV:1.8%
x264 [info]: ref P L0: 51.1% 11.9% 19.7% 9.0% 7.0% 1.3% 0.0%
x264 [info]: ref B L0: 85.9% 9.5% 3.4% 1.3%
x264 [info]: ref B L1: 96.3% 3.7%
x264 [info]: kb/s:13884.23
x264 [info]: encoded 127000 frames, 1.232 fps, 13884.23 kb/s, 8408.1 MB
x264 [info]: ended at Fri Jun 20 05:00:26 2014
x264 [info]: encoding duration 28:37:45
Скриншот c названием фильма Скриншоты Source vs Rip
Скачать

Скачать торрент!

Как скачивать? · Что такое торрент? · Рейтинг и ограничения

Сайт не распространяет и не хранит электронные версии произведений, а лишь предоставляет доступ к создаваемому пользователями каталогу ссылок на торрент-файлы, которые содержат только списки хеш-сумм

[Профиль] [ЛС]
Показать сообщения:    
Ответить на тему

Текущее время: Сегодня 12:53

Часовой пояс: GMT + 4



Вы не можете начинать темы
Вы не можете отвечать на сообщения
Вы не можете редактировать свои сообщения
Вы не можете удалять свои сообщения
Вы не можете голосовать в опросах
Вы не можете прикреплять файлы к сообщениям
Вы не можете скачивать файлы