Поцелуй мамочку на ночь / Dark Touch (Марина де Ван / Marina de Van) [2013, Франция, Ирландия, Швеция, ужасы, WEB-DL 720p] MVO + Sub Eng + Original Eng

Ответить на тему
 
Автор Сообщение

user ®

Стаж: 7 лет 7 месяцев

Сообщений: 20008

Пост Пост: #1 от 25-Июн-2014 00:00

[Цитировать]

Поцелуй мамочку на ночь / Dark Touch
Страна: Франция, Ирландия, Швеция
Жанр: ужасы
Год выпуска: 2013
Продолжительность: 01:31:28
Перевод: Профессиональный (многоголосый закадровый) Лицензия [R5]
Cубтитры: английские
Оригинальная аудиодорожка: английский
Режиссер: Марина де Ван / Marina de Van
В ролях: Мисси Китинг, Марселла Планкетт, Падрейк Делани, Шарлотта Фливхолм, Стивен Уолл, Роберт Доннелли, Сьюзи Пауэр, Ричард Дормер, Катрин Уолкер, Саймон Бойл
Описание: Однажды вечером в доме на окраине начинают происходить невероятно ужасные и таинственные вещи, в ходе чего погибают его обитатели, родители и младший брат 11-летней девочки Ниам. Полиция считает, что это дело рук убийц-вандалов, и не придаёт значения словам Ниам, когда та рассказывает о беспощадной ярости дома.
Девочку забирают к себе друзья её родителей, которые, окружив Ниам любовью и вниманием, стараются облегчить её боль. Но Ниам не оставляют в покое. Она постоянно замечает признаки подкрадывающейся опасности, окружающие её предметы пропитаны жестокой яростью, которая вскоре вновь прорывается и начинает жестокую расправу, в поисках всё новых жертв…
Imdb|Kинопоиск|Сэмпл
Тип релиза: WEB-DL 720p
Контейнер: MKV
Видео: MPEG4 Video (H264) 1280x536 24fps 3 488 Kbps
Аудио: Русский, AC-3, 6 ch, 48.0 KHz, 384 Kbps
Аудио 2: Английский, AC-3, 6 ch, 48.0 KHz, 384 Kbps
Формат субтитров: softsub (SRT)
MediaInfo
General
Unique ID : 208985875299870095803689013757614690426 (0x9D39372C478533BA8FA85D273607107A)
Complete name : C:\Users\Вика\Desktop\Dark.Touch.2013.720p.WEB-DL.DD5.1.H.264.mkv
Format : Matroska
Format version : Version 4 / Version 2
File size : 2.77 GiB
Duration : 1h 31mn
Overall bit rate : 4 343 Kbps
Encoded date : UTC 2014-06-17 11:20:16
Writing application : mkvmerge v6.9.1 ('Blue Panther') 64bit built on Apr 18 2014 18:23:38
Writing library : libebml v1.3.0 + libmatroska v1.4.1
Video
ID : 1
Format : AVC
Format/Info : Advanced Video Codec
Format profile : Main@L3.1
Format settings, CABAC : No
Format settings, ReFrames : 2 frames
Codec ID : V_MPEG4/ISO/AVC
Duration : 1h 31mn
Bit rate : 3 488 Kbps
Width : 1 280 pixels
Height : 536 pixels
Display aspect ratio : 2.40:1
Frame rate mode : Constant
Frame rate : 24.000 fps
Color space : YUV
Chroma subsampling : 4:2:0
Bit depth : 8 bits
Scan type : Progressive
Bits/(Pixel*Frame) : 0.212
Stream size : 2.23 GiB (80%)
Language : English
Default : Yes
Forced : No
Color primaries : BT.709
Transfer characteristics : BT.709
Matrix coefficients : BT.709
Audio #1
ID : 2
Format : AC-3
Format/Info : Audio Coding 3
Mode extension : CM (complete main)
Format settings, Endianness : Big
Codec ID : A_AC3
Duration : 1h 31mn
Bit rate mode : Constant
Bit rate : 384 Kbps
Channel count : 6 channels
Channel positions : Front: L C R, Side: L R, LFE
Sampling rate : 48.0 KHz
Bit depth : 16 bits
Compression mode : Lossy
Stream size : 251 MiB (9%)
Language : Russian
Default : Yes
Forced : Yes
Audio #2
ID : 3
Format : AC-3
Format/Info : Audio Coding 3
Mode extension : CM (complete main)
Format settings, Endianness : Big
Codec ID : A_AC3
Duration : 1h 31mn
Bit rate mode : Constant
Bit rate : 384 Kbps
Channel count : 6 channels
Channel positions : Front: L C R, Side: L R, LFE
Sampling rate : 48.0 KHz
Bit depth : 16 bits
Compression mode : Lossy
Stream size : 251 MiB (9%)
Language : English
Default : No
Forced : No
Text
ID : 4
Format : UTF-8
Codec ID : S_TEXT/UTF8
Codec ID/Info : UTF-8 Plain Text
Language : English
Default : No
Forced : No
Menu
00:00:00.000 : en:Chapter 1
00:10:53.000 : en:Chapter 2
00:19:41.000 : en:Chapter 3
00:30:47.000 : en:Chapter 4
00:39:35.000 : en:Chapter 5
00:50:33.000 : en:Chapter 6
01:00:52.000 : en:Chapter 7
01:09:14.000 : en:Chapter 8
01:21:12.000 : en:Chapter 9
01:27:40.000 : en:Chapter 10
Скриншоты
Скачать

Скачать торрент!

Как скачивать? · Что такое торрент? · Рейтинг и ограничения

Сайт не распространяет и не хранит электронные версии произведений, а лишь предоставляет доступ к создаваемому пользователями каталогу ссылок на торрент-файлы, которые содержат только списки хеш-сумм

[Профиль] [ЛС]
Показать сообщения:    
Ответить на тему

Текущее время: Сегодня 01:49

Часовой пояс: GMT + 4



Вы не можете начинать темы
Вы не можете отвечать на сообщения
Вы не можете редактировать свои сообщения
Вы не можете удалять свои сообщения
Вы не можете голосовать в опросах
Вы не можете прикреплять файлы к сообщениям
Вы не можете скачивать файлы