Влюбленные / Belle du Seigneur (Гленио Бондер / Glenio Bonder) [2012, Франция, Люксембург, Германия, Бельгия, Швейцария, Великобритания, драма, мелодрама, BDRip 720p] Dub + Original (Eng)

Ответить на тему
 
Автор Сообщение

user ®

Стаж: 7 лет 7 месяцев

Сообщений: 20008

Пост Пост: #1 от 25-Июн-2014 00:00

[Цитировать]

Влюбленные / Belle du Seigneur Страна: Франция, Люксембург, Германия, Бельгия, Швейцария, Великобритания
Жанр: драма, мелодрама
Год выпуска: 2012
Продолжительность: 01:40:24
Перевод: Профессиональный (дублированный) R5
Cубтитры: нет
Оригинальная аудиодорожка: английский
Режиссер: Гленио Бондер / Glenio Bonder
В ролях: Джонатан Риз Майерс, Наталья Водянова, Эд Стоппард, Марианна Фэйтфулл, Мария Бонневи, Джанин Хорсбур, Лесли Вудхолл, Джимми Де Брэбэнт, Стефан Вейнерт, Гилберт Джонстон
Описание:
В 1930-е высокопоставленный чиновник Лиги Наций Солаль приезжает в Женеву. Там он знакомится с замужней аристократкой Арианой, и через некоторое время у них начинается страстный роман.
- ||-Тип релиза: BDRip 720p (рип от AdzsC@WiKi)

Контейнер: MKV
Видео: AVC (x264), 1280x534 (2,40:1) at 25,000 fps, 7155 Кbps, 0.419 bpp
Аудио 1: AC3; 448 Kbps; CBR; 6 ch; 48 khz | Дубляж |
Аудио 2: AC3; 640 Kbps; CBR; 6 ch; 48 khz | Английский |
Скриншоты || x264 Info || MediaInfo || Notes
MediaInfo
Общее
Уникальный идентификатор                 : 175574787477727133066890122850591025829 (0x8416795C89E5FB97BD8AE7F14BD7AAA5)
Полное имя                               : Влюбленные.2012.D.720p.BluRay.x264-WiKi.mkv
Формат                                   : Matroska
Версия формата                           : Version 4 / Version 2
Размер файла                             : 5,78 Гбайт
Продолжительность                        : 1 ч. 40 м.
Общий поток                              : 8243 Кбит/сек
Название фильма                          : Belle du Seigneur [720p] [2012] DUB
Дата кодирования                         : UTC 2014-01-06 12:26:44
Программа кодирования                    : mkvmerge v6.6.0 ('The Edge Of The In Between') built on Dec  1 2013 17:55:00
Библиотека кодирования                   : libebml v1.3.0 + libmatroska v1.4.1
Видео
Идентификатор                            : 1
Формат                                   : AVC
Формат/Информация                        : Advanced Video Codec
Профиль формата                          : High@L4.1
Параметр CABAC формата                   : Да
Параметр ReFrames формата                : 12 кадров
Идентификатор кодека                     : V_MPEG4/ISO/AVC
Продолжительность                        : 1 ч. 40 м.
Битрейт                                  : 7155 Кбит/сек
Ширина                                   : 1280 пикселей
Высота                                   : 534 пикселя
Соотношение сторон                       : 2,40:1
Режим частоты кадров                     : Постоянный
Частота кадров                           : 25,000 кадров/сек
Цветовое пространство                    : YUV
Субдискретизация насыщенности            : 4:2:0
Битовая глубина                          : 8 бит
Тип развёртки                            : Прогрессивная
Бит/(Пиксели*Кадры)                      : 0.419
Размер потока                            : 4,90 Гбайт (85%)
Заголовок                                : profile.php?mode=viewprofile&u=22488948
Библиотека кодирования                   : x264 core 136 r2348+704+51 d1baef6 tMod [8-bit@all X86]
Настройки программы                      : cabac=1 / ref=12 / deblock=1:-2:-2 / analyse=0x3:0x133 / me=umh / subme=11 / psy=1 / fade_compensate=0.00 / psy_rd=1.05:0.15 / mixed_ref=1 / me_range=32 / chroma_me=1 / trellis=2 / 8x8dct=1 / cqm=0 / deadzone=21,11 / fast_pskip=0 / chroma_qp_offset=-3 / threads=12 / lookahead_threads=3 / sliced_threads=0 / nr=0 / decimate=0 / interlaced=0 / bluray_compat=0 / constrained_intra=0 / fgo=0 / bframes=10 / b_pyramid=2 / b_adapt=2 / b_bias=0 / direct=3 / weightb=1 / open_gop=0 / weightp=2 / keyint=250 / keyint_min=25 / scenecut=40 / intra_refresh=0 / rc_lookahead=120 / rc=2pass / mbtree=1 / bitrate=7155 / ratetol=1.0 / qcomp=0.70 / qpmin=0:0:0 / qpmax=69:69:69 / qpstep=4 / cplxblur=20.0 / qblur=0.5 / ip_ratio=1.40 / aq=3:0.75 / aq-sensitivity=10.00 / aq-factor=1.00:1.00:1.00 / aq2=0 / aq3=0
Язык                                     : English
Default                                  : Да
Forced                                   : Нет
Аудио #1
Идентификатор                            : 2
Формат                                   : AC-3
Формат/Информация                        : Audio Coding 3
Расширение режима                        : CM (complete main)
Параметр Endianness формата              : Big
Идентификатор кодека                     : A_AC3
Продолжительность                        : 1 ч. 40 м.
Вид битрейта                             : Постоянный
Битрейт                                  : 448 Кбит/сек
Каналы                                   : 6 каналов
Расположение каналов                     : Front: L C R, Side: L R, LFE
Частота                                  : 48,0 КГц
Битовая глубина                          : 16 бит
Метод сжатия                             : С потерями
Размер потока                            : 322 Мбайт (5%)
Заголовок                                : DUB
Язык                                     : Russian
Default                                  : Да
Forced                                   : Нет
Аудио #2
Идентификатор                            : 3
Формат                                   : AC-3
Формат/Информация                        : Audio Coding 3
Расширение режима                        : CM (complete main)
Параметр Endianness формата              : Big
Идентификатор кодека                     : A_AC3
Продолжительность                        : 1 ч. 40 м.
Вид битрейта                             : Постоянный
Битрейт                                  : 640 Кбит/сек
Каналы                                   : 6 каналов
Расположение каналов                     : Front: L C R, Side: L R, LFE
Частота                                  : 48,0 КГц
Битовая глубина                          : 16 бит
Метод сжатия                             : С потерями
Размер потока                            : 460 Мбайт (8%)
Язык                                     : English
Default                                  : Нет
Forced                                   : Нет
Меню
00:00:00.000                             : en:00:00:00.000
00:07:31.120                             : en:00:07:31.120
00:12:03.800                             : en:00:12:03.800
00:19:01.960                             : en:00:19:01.960
00:31:07.920                             : en:00:31:07.920
00:40:58.239                             : en:00:40:58.239
00:48:06.120                             : en:00:48:06.120
00:55:37.920                             : en:00:55:37.920
01:03:37.080                             : en:01:03:37.080
01:12:55.040                             : en:01:12:55.040
01:22:31.560                             : en:01:22:31.560
01:29:58.400                             : en:01:29:58.400
x264 Infox264 [info]: frame I:993 Avg QP:14.95 size:114856
x264 [info]: frame P:29108 Avg QP:17.83 size: 52675
x264 [info]: frame B:120512 Avg QP:19.70 size: 31028
x264 [info]: consecutive B-frames: 1.1% 2.8% 5.0% 10.9% 11.1% 55.2% 5.3% 1.3% 4.0% 1.6% 1.8%
Скачать

Скачать торрент!

Как скачивать? · Что такое торрент? · Рейтинг и ограничения

Сайт не распространяет и не хранит электронные версии произведений, а лишь предоставляет доступ к создаваемому пользователями каталогу ссылок на торрент-файлы, которые содержат только списки хеш-сумм

[Профиль] [ЛС]
Показать сообщения:    
Ответить на тему

Текущее время: Сегодня 04:46

Часовой пояс: GMT + 4



Вы не можете начинать темы
Вы не можете отвечать на сообщения
Вы не можете редактировать свои сообщения
Вы не можете удалять свои сообщения
Вы не можете голосовать в опросах
Вы не можете прикреплять файлы к сообщениям
Вы не можете скачивать файлы