Байконур / Baikonur (Файт Хелмер / Veit Helmer) [2011, Россия, Германия, Казахстан, драма, HDTVRip 1080p] + Original Rus

Ответить на тему
 
Автор Сообщение

user ®

Стаж: 7 лет 7 месяцев

Сообщений: 20008

Пост Пост: #1 от 25-Июн-2014 00:00

[Цитировать]

Байконур / Baikonur
Страна: Россия, Германия, Казахстан
Студия: Кинокомпания CTB
Жанр: драма
Год выпуска: 2011
Продолжительность: 01:29:36
Перевод: Не требуется
Cубтитры: нет
Оригинальная аудиодорожка: русский
Режиссер: Файт Хелмер / Veit Helmer
В ролях: Александр Асочаков, Мари де Вильпен, Ситора Фармонова, Валера Канищев, Ерболат Тогузаков
Описание: Искандер по прозвищу Гагарин живет в деревне Кунгей возле космодрома. Жизнь жителей деревни размеренно течет от одного взлёта ракеты к следующему. Пока однажды с неба не падает прекрасная космическая туристка Джули. Жизнь Гагарина перевернулась. Он влюблен без пямяти и готов ради Джули на все — отдать ей свадебное платье матери, поставить в юрте ванную и даже уйти из деревни. Сможет ли француженка оценить его жертвы, если она потеряла память и теперь отзывается на казахское имя Кокетай?
Доп. информация: За рип спасибо DST.

Sample
Тип релиза: HDTVRip 1080p
Контейнер: MKV
Видео: MPEG4 AVC Video, H264, 16:9, 1920x1040, 25 fps, 5050 kbps
Аудио: Russian (AC3, 6 ch, 384 kbps, 16 bits, 48.0 KHz)
MediaInfo
General
Unique ID : 223817850117201328046927146364677875081 (0xA861BFFD91B854DD957FEC8E1B636589)
Complete name : E:\1\Байконур\Байконур 2011 HDTVRip 1080p.mkv
Format : Matroska
Format version : Version 4 / Version 2
File size : 3.40 GiB
Duration : 1h 29mn
Overall bit rate : 5 433 Kbps
Encoded date : UTC 2014-06-19 03:00:35
Writing application : mkvmerge v6.1.0 ('Old Devil') built on Mar 2 2013 14:32:37
Writing library : libebml v1.3.0 + libmatroska v1.4.0
Video
ID : 1
Format : AVC
Format/Info : Advanced Video Codec
Format profile : High@L4.1
Format settings, CABAC : Yes
Format settings, ReFrames : 4 frames
Codec ID : V_MPEG4/ISO/AVC
Duration : 1h 29mn
Bit rate : 5 050 Kbps
Width : 1 920 pixels
Height : 1 040 pixels
Display aspect ratio : 1.85:1
Frame rate mode : Constant
Frame rate : 25.000 fps
Color space : YUV
Chroma subsampling : 4:2:0
Bit depth : 8 bits
Scan type : Progressive
Bits/(Pixel*Frame) : 0.101
Stream size : 3.09 GiB (91%)
Writing library : x264 core 125 r2208 d9d2288
Encoding settings : cabac=1 / ref=4 / deblock=1:-3:-2 / analyse=0x3:0x133 / me=umh / subme=10 / psy=1 / psy_rd=1.00:0.20 / mixed_ref=1 / me_range=48 / chroma_me=1 / trellis=2 / 8x8dct=1 / cqm=0 / deadzone=21,11 / fast_pskip=0 / chroma_qp_offset=-3 / threads=6 / lookahead_threads=1 / sliced_threads=0 / nr=0 / decimate=0 / interlaced=0 / bluray_compat=0 / constrained_intra=0 / bframes=8 / b_pyramid=2 / b_adapt=2 / b_bias=0 / direct=3 / weightb=1 / open_gop=0 / weightp=2 / keyint=250 / keyint_min=25 / scenecut=40 / intra_refresh=0 / rc=2pass / mbtree=0 / bitrate=5050 / ratetol=1.0 / qcomp=0.60 / qpmin=0 / qpmax=69 / qpstep=4 / cplxblur=20.0 / qblur=0.5 / ip_ratio=1.40 / pb_ratio=1.30 / aq=1:1.00
Language : English
Default : Yes
Forced : No
Audio
ID : 2
Format : AC-3
Format/Info : Audio Coding 3
Mode extension : CM (complete main)
Format settings, Endianness : Big
Codec ID : A_AC3
Duration : 1h 29mn
Bit rate mode : Constant
Bit rate : 384 Kbps
Channel count : 6 channels
Channel positions : Front: L C R, Side: L R, LFE
Sampling rate : 48.0 KHz
Bit depth : 16 bits
Compression mode : Lossy
Stream size : 246 MiB (7%)
Language : Russian
Default : Yes
Forced : No
Скриншоты
Скачать

Скачать торрент!

Как скачивать? · Что такое торрент? · Рейтинг и ограничения

Сайт не распространяет и не хранит электронные версии произведений, а лишь предоставляет доступ к создаваемому пользователями каталогу ссылок на торрент-файлы, которые содержат только списки хеш-сумм

[Профиль] [ЛС]
Показать сообщения:    
Ответить на тему

Текущее время: Сегодня 18:40

Часовой пояс: GMT + 4



Вы не можете начинать темы
Вы не можете отвечать на сообщения
Вы не можете редактировать свои сообщения
Вы не можете удалять свои сообщения
Вы не можете голосовать в опросах
Вы не можете прикреплять файлы к сообщениям
Вы не можете скачивать файлы