Луна команчей / Comanche Moon (Саймон Уинсер / Simon Wincer) [2008, США, драма, вестерн, BDRemux 1080i] DVO + AVO (Визгунов) + Original eng + Sub eng

Ответить на тему
 
Автор Сообщение

user ®

Стаж: 7 лет 7 месяцев

Сообщений: 20008

Пост Пост: #1 от 25-Июн-2014 00:00

[Цитировать]

Луна команчей / Comanche Moon
Страна: США
Жанр: драма, вестерн
Год выпуска: 2008
Продолжительность: 01:32:06 + 01:28:41 + 01:32:01
Перевод#1: Профессиональный (двухголосый закадровый) | [url=http://***/forum/viewtopic.php?t=991314]Superbit[/url] (Гланц и Королева)
Перевод#2: Авторский (одноголосый закадровый), С. Визгунов
Cубтитры: английские
Оригинальная аудиодорожка: английский
Режиссер: Саймон Уинсер / Simon Wincer
В ролях: Вэл Килмер, Стив Зан, Карл Урбан, Линда Карделлини, Элизабет Бэнкс, Райан Мерриман, Рэй МакКиннон, Кейт Робинсон, Уэс Стади, Адам Бич
Описание: Фильм снят по роману Лэрри Макмертри. Сюжет завязан вокруг двух техасских рейнджеров которые пытаются заставить покориться народ команчей, тем самым освободив для заселения белыми территории Западного Техаса. Рейнджеры преследуют троих преступников: военного лидера команчей, знаменитого конокрада и смертоносного короля мексиканских бандитов, известного своей склонностью к пыткам…

Тип релиза: BDRemux 1080i | Comanche Moon 2008 1080i NOR Blu-ray AVC DD 5.1-TRUSTED @ HDBits | sample
Контейнер: MKV
Видео E01-E02: MPEG-4 AVC Video / 30000 kbps / 1080i / 25 fps / 16:9 / High Profile 4.1
Видео E03: MPEG-4 AVC Video / 18954 kbps / 1080i / 25 fps / 16:9 / High Profile 4.1
Аудио #1: Russian AC3 6ch 48kHz 448Kbps | DVO Superbit
Аудио #2: Russian AC3 6ch 48kHz 640Kbps | AVO Визгунов
Аудио #3: English AC3 6ch 48kHz 640Kbps | Original
Формат субтитров: softsub (SRT)
Главы: есть

MediaInfo
E01
General
Complete name : D:\...\Comanche.Moon.2008.E01.1080i.Remux.AVC.DD5.1.Rus.Eng-E76.mkv
Format : Matroska
Format version : Version 2
File size : 20.4 GiB
Duration : 1h 32mn
Overall bit rate mode : Variable
Overall bit rate : 31.7 Mbps
Movie name : Comanche.Moon.2008.E01.1080i.Remux.AVC.DD5.1.Rus.Eng-E76
Encoded date : UTC 2014-06-19 10:50:16
Writing application : mkvmerge v6.5.0 ('Isn't she lovely') built on Oct 20 2013 12:50:05
Writing library : libebml v1.3.0 + libmatroska v1.4.1
Video
ID : 1
Format : AVC
Format/Info : Advanced Video Codec
Format profile : High@L4.1
Format settings, CABAC : Yes
Format settings, ReFrames : 3 frames
Format settings, GOP : M=3, N=12
Codec ID : V_MPEG4/ISO/AVC
Bit rate mode : Variable
Bit rate : 29.4 Mbps
Maximum bit rate : 35.0 Mbps
Width : 1 920 pixels
Height : 1 080 pixels
Display aspect ratio : 16:9
Frame rate mode : Variable
Original frame rate : 25.000 fps
Standard : NTSC
Color space : YUV
Chroma subsampling : 4:2:0
Bit depth : 8 bits
Scan type : Interlaced
Scan order : Top Field First
Title : Comanche Moon (2008) E01
Language : English
Default : Yes
Forced : No
Color primaries : BT.709
Transfer characteristics : BT.709
Matrix coefficients : BT.709
Audio #1
ID : 2
Format : AC-3
Format/Info : Audio Coding 3
Mode extension : CM (complete main)
Format settings, Endianness : Big
Codec ID : A_AC3
Duration : 1h 32mn
Bit rate mode : Constant
Bit rate : 448 Kbps
Channel(s) : 6 channels
Channel positions : Front: L C R, Side: L R, LFE
Sampling rate : 48.0 KHz
Bit depth : 16 bits
Compression mode : Lossy
Stream size : 295 MiB (1%)
Title : DVO Superbit
Language : Russian
Default : Yes
Forced : No
Audio #2
ID : 3
Format : AC-3
Format/Info : Audio Coding 3
Mode extension : CM (complete main)
Format settings, Endianness : Big
Codec ID : A_AC3
Duration : 1h 32mn
Bit rate mode : Constant
Bit rate : 640 Kbps
Channel(s) : 6 channels
Channel positions : Front: L C R, Side: L R, LFE
Sampling rate : 48.0 KHz
Bit depth : 16 bits
Compression mode : Lossy
Stream size : 422 MiB (2%)
Title : AVO Vizgunov
Language : Russian
Default : No
Forced : No
Audio #3
ID : 4
Format : AC-3
Format/Info : Audio Coding 3
Mode extension : CM (complete main)
Format settings, Endianness : Big
Codec ID : A_AC3
Duration : 1h 32mn
Bit rate mode : Constant
Bit rate : 640 Kbps
Channel(s) : 6 channels
Channel positions : Front: L C R, Side: L R, LFE
Sampling rate : 48.0 KHz
Bit depth : 16 bits
Compression mode : Lossy
Stream size : 422 MiB (2%)
Title : Original
Language : English
Default : No
Forced : No
Text
ID : 5
Format : UTF-8
Codec ID : S_TEXT/UTF8
Codec ID/Info : UTF-8 Plain Text
Language : English
Default : No
Forced : No
Menu
00:00:00.000 : en:00:00:00.000
00:05:10.640 : en:00:05:10.640
00:12:58.120 : en:00:12:58.120
00:20:27.280 : en:00:20:27.280
00:30:45.520 : en:00:30:45.520
00:38:33.400 : en:00:38:33.400
00:46:34.640 : en:00:46:34.640
00:54:39.160 : en:00:54:39.160
01:04:38.040 : en:01:04:38.040
01:14:08.480 : en:01:14:08.480
01:21:45.120 : en:01:21:45.120
01:28:21.560 : en:01:28:21.560
E02
General
Complete name : D:\...\Comanche.Moon.2008.E02.1080i.Remux.AVC.DD5.1.Rus.Eng-E76.mkv
Format : Matroska
Format version : Version 2
File size : 19.0 GiB
Duration : 1h 28mn
Overall bit rate mode : Variable
Overall bit rate : 30.6 Mbps
Movie name : Comanche.Moon.2008.E02.1080i.Remux.AVC.DD5.1.Rus.Eng-E76
Encoded date : UTC 2014-06-19 11:08:35
Writing application : mkvmerge v6.5.0 ('Isn't she lovely') built on Oct 20 2013 12:50:05
Writing library : libebml v1.3.0 + libmatroska v1.4.1
Video
ID : 1
Format : AVC
Format/Info : Advanced Video Codec
Format profile : High@L4.1
Format settings, CABAC : Yes
Format settings, ReFrames : 3 frames
Format settings, GOP : M=3, N=12
Codec ID : V_MPEG4/ISO/AVC
Bit rate mode : Variable
Bit rate : 28.3 Mbps
Maximum bit rate : 35.0 Mbps
Width : 1 920 pixels
Height : 1 080 pixels
Display aspect ratio : 16:9
Frame rate mode : Variable
Original frame rate : 25.000 fps
Standard : NTSC
Color space : YUV
Chroma subsampling : 4:2:0
Bit depth : 8 bits
Scan type : Interlaced
Scan order : Top Field First
Title : Comanche Moon (2008) E02
Language : English
Default : Yes
Forced : No
Color primaries : BT.709
Transfer characteristics : BT.709
Matrix coefficients : BT.709
Audio #1
ID : 2
Format : AC-3
Format/Info : Audio Coding 3
Mode extension : CM (complete main)
Format settings, Endianness : Big
Codec ID : A_AC3
Duration : 1h 28mn
Bit rate mode : Constant
Bit rate : 448 Kbps
Channel(s) : 6 channels
Channel positions : Front: L C R, Side: L R, LFE
Sampling rate : 48.0 KHz
Bit depth : 16 bits
Compression mode : Lossy
Stream size : 284 MiB (1%)
Title : DVO Superbit
Language : Russian
Default : Yes
Forced : No
Audio #2
ID : 3
Format : AC-3
Format/Info : Audio Coding 3
Mode extension : CM (complete main)
Format settings, Endianness : Big
Codec ID : A_AC3
Duration : 1h 28mn
Bit rate mode : Constant
Bit rate : 640 Kbps
Channel(s) : 6 channels
Channel positions : Front: L C R, Side: L R, LFE
Sampling rate : 48.0 KHz
Bit depth : 16 bits
Compression mode : Lossy
Stream size : 406 MiB (2%)
Title : AVO Vizgunov
Language : Russian
Default : No
Forced : No
Audio #3
ID : 4
Format : AC-3
Format/Info : Audio Coding 3
Mode extension : CM (complete main)
Format settings, Endianness : Big
Codec ID : A_AC3
Duration : 1h 28mn
Bit rate mode : Constant
Bit rate : 640 Kbps
Channel(s) : 6 channels
Channel positions : Front: L C R, Side: L R, LFE
Sampling rate : 48.0 KHz
Bit depth : 16 bits
Compression mode : Lossy
Stream size : 406 MiB (2%)
Title : Original
Language : English
Default : No
Forced : No
Text
ID : 5
Format : UTF-8
Codec ID : S_TEXT/UTF8
Codec ID/Info : UTF-8 Plain Text
Language : English
Default : No
Forced : No
Menu
00:00:00.000 : en:00:00:00.000
00:06:39.560 : en:00:06:39.560
00:14:45.120 : en:00:14:45.120
00:22:47.320 : en:00:22:47.320
00:31:25.960 : en:00:31:25.960
00:41:02.320 : en:00:41:02.320
00:51:07.880 : en:00:51:07.880
00:58:17.720 : en:00:58:17.720
01:08:08.080 : en:01:08:08.080
01:16:37.600 : en:01:16:37.600
01:24:56.560 : en:01:24:56.560
E03
General
Complete name : D:\...\Comanche.Moon.2008.E03.1080i.Remux.AVC.DD5.1.Rus.Eng-E76.mkv
Format : Matroska
Format version : Version 2
File size : 13.3 GiB
Duration : 1h 32mn
Overall bit rate mode : Variable
Overall bit rate : 20.7 Mbps
Movie name : Comanche.Moon.2008.E03.1080i.Remux.AVC.DD5.1.Rus.Eng-E76
Encoded date : UTC 2014-06-19 11:24:47
Writing application : mkvmerge v6.5.0 ('Isn't she lovely') built on Oct 20 2013 12:50:05
Writing library : libebml v1.3.0 + libmatroska v1.4.1
Video
ID : 1
Format : AVC
Format/Info : Advanced Video Codec
Format profile : High@L4.1
Format settings, CABAC : Yes
Format settings, ReFrames : 4 frames
Codec ID : V_MPEG4/ISO/AVC
Duration : 1h 32mn
Bit rate mode : Variable
Bit rate : 18.5 Mbps
Maximum bit rate : 25.0 Mbps
Width : 1 920 pixels
Height : 1 080 pixels
Display aspect ratio : 16:9
Frame rate mode : Constant
Frame rate : 25.000 fps
Standard : PAL
Color space : YUV
Chroma subsampling : 4:2:0
Bit depth : 8 bits
Scan type : MBAFF
Bits/(Pixel*Frame) : 0.358
Stream size : 11.9 GiB (90%)
Title : Comanche Moon (2008) E03
Language : English
Default : Yes
Forced : No
Color primaries : BT.709
Transfer characteristics : BT.709
Matrix coefficients : BT.709
Audio #1
ID : 2
Format : AC-3
Format/Info : Audio Coding 3
Mode extension : CM (complete main)
Format settings, Endianness : Big
Codec ID : A_AC3
Duration : 1h 32mn
Bit rate mode : Constant
Bit rate : 448 Kbps
Channel(s) : 6 channels
Channel positions : Front: L C R, Side: L R, LFE
Sampling rate : 48.0 KHz
Bit depth : 16 bits
Compression mode : Lossy
Stream size : 295 MiB (2%)
Title : DVO Superbit
Language : Russian
Default : Yes
Forced : No
Audio #2
ID : 3
Format : AC-3
Format/Info : Audio Coding 3
Mode extension : CM (complete main)
Format settings, Endianness : Big
Codec ID : A_AC3
Duration : 1h 32mn
Bit rate mode : Constant
Bit rate : 640 Kbps
Channel(s) : 6 channels
Channel positions : Front: L C R, Side: L R, LFE
Sampling rate : 48.0 KHz
Bit depth : 16 bits
Compression mode : Lossy
Stream size : 421 MiB (3%)
Title : AVO Vizgunov
Language : Russian
Default : No
Forced : No
Audio #3
ID : 4
Format : AC-3
Format/Info : Audio Coding 3
Mode extension : CM (complete main)
Format settings, Endianness : Big
Codec ID : A_AC3
Duration : 1h 32mn
Bit rate mode : Constant
Bit rate : 640 Kbps
Channel(s) : 6 channels
Channel positions : Front: L C R, Side: L R, LFE
Sampling rate : 48.0 KHz
Bit depth : 16 bits
Compression mode : Lossy
Stream size : 421 MiB (3%)
Title : Original
Language : Russian
Default : No
Forced : No
Text
ID : 5
Format : UTF-8
Codec ID : S_TEXT/UTF8
Codec ID/Info : UTF-8 Plain Text
Language : English
Default : No
Forced : No
Menu
00:00:00.000 : en:00:00:00.000
00:08:18.760 : en:00:08:18.760
00:16:12.360 : en:00:16:12.360
00:24:16.200 : en:00:24:16.200
00:33:29.720 : en:00:33:29.720
00:41:30.040 : en:00:41:30.040
00:53:02.600 : en:00:53:02.600
01:03:50.800 : en:01:03:50.800
01:14:04.120 : en:01:14:04.120
01:21:15.760 : en:01:21:15.760
01:28:18.560 : en:01:28:18.560
Скриншоты
Скачать

Скачать торрент!

Как скачивать? · Что такое торрент? · Рейтинг и ограничения

Сайт не распространяет и не хранит электронные версии произведений, а лишь предоставляет доступ к создаваемому пользователями каталогу ссылок на торрент-файлы, которые содержат только списки хеш-сумм

[Профиль] [ЛС]
Показать сообщения:    
Ответить на тему

Текущее время: Сегодня 05:53

Часовой пояс: GMT + 4



Вы не можете начинать темы
Вы не можете отвечать на сообщения
Вы не можете редактировать свои сообщения
Вы не можете удалять свои сообщения
Вы не можете голосовать в опросах
Вы не можете прикреплять файлы к сообщениям
Вы не можете скачивать файлы