Луна команчей / Comanche Moon (Саймон Уинсер / Simon Wincer) [2008, США, драма, вестерн, BDRip 720p] DVO + AVO (Визгунов) + Original eng + Sub eng

Ответить на тему
 
Автор Сообщение

user ®

Стаж: 7 лет 7 месяцев

Сообщений: 20008

Пост Пост: #1 от 25-Июн-2014 00:00

[Цитировать]

Луна команчей / Comanche Moon
Страна: США
Жанр: драма, вестерн
Год выпуска: 2008
Продолжительность: 01:32:06 + 01:28:41 + 01:32:01
Перевод#1: Профессиональный (двухголосый закадровый) | (Гланц и Королева)
Перевод#2: Авторский (одноголосый закадровый), С. Визгунов
Cубтитры: английские
Оригинальная аудиодорожка: английский
Режиссер: Саймон Уинсер / Simon Wincer
В ролях: Вэл Килмер, Стив Зан, Карл Урбан, Линда Карделлини, Элизабет Бэнкс, Райан Мерриман, Рэй МакКиннон, Кейт Робинсон, Уэс Стади, Адам Бич
Описание: Фильм снят по роману Лэрри Макмертри. Сюжет завязан вокруг двух техасских рейнджеров которые пытаются заставить покориться народ команчей, тем самым освободив для заселения белыми территории Западного Техаса. Рейнджеры преследуют троих преступников: военного лидера команчей, знаменитого конокрада и смертоносного короля мексиканских бандитов, известного своей склонностью к пыткам…

Тип релиза: BDRip 720p | sample
Контейнер: MKV
Видео кодек: x264
Видео: AVC 1276x720 (16:9), 25 fps, ~10.5-11 Mbps, 0.46-0.48 bit/pixel
Аудио #1: Russian AC3 6ch 48kHz 448Kbps | DVO Superbit
Аудио #2: Russian AC3 6ch 48kHz 640Kbps | AVO Визгунов
Аудио #3: English AC3 6ch 48kHz 640Kbps | Original
Формат субтитров: softsub (SRT)
Главы: есть

MediaInfo | x264
E01
x264
--[Information] [17.02.2014 11:14:07] raw [info]: 1276x720p 1:1 @ 25/1 fps (cfr)
--[Information] [18.02.2014 3:52:21] x264 [info]: frame I:1065 Avg QP:14.87 size:152933
--[Information] [18.02.2014 3:52:21] x264 [info]: frame P:24358 Avg QP:16.46 size: 71767
--[Information] [18.02.2014 3:52:21] x264 [info]: frame B:112719 Avg QP:17.80 size: 47753
--[Information] [18.02.2014 3:52:21] x264 [info]: consecutive B-frames: 1.1% 0.8% 2.8% 8.1% 10.3% 57.9% 6.2% 1.9% 5.5% 1.6% 1.2% 1.8% 0.7%
--[Information] [18.02.2014 3:52:22] x264 [info]: kb/s:10559.65
General
Complete name : D:\...\Comanche.Moon.2008.E01.720p.BluRay.x264.DD5.1.Rus.Eng-E76.mkv
Format : Matroska
Format version : Version 2
File size : 7.91 GiB
Duration : 1h 32mn
Overall bit rate : 12.3 Mbps
Movie name : Comanche.Moon.2008.E01.720p.BluRay.x264.DD5.1.Rus.Eng-E76
Encoded date : UTC 2014-06-18 10:42:59
Writing application : mkvmerge v6.5.0 ('Isn't she lovely') built on Oct 20 2013 12:50:05
Writing library : libebml v1.3.0 + libmatroska v1.4.1
Video
ID : 1
Format : AVC
Format/Info : Advanced Video Codec
Format profile : High@L4.1
Format settings, CABAC : Yes
Format settings, ReFrames : 8 frames
Codec ID : V_MPEG4/ISO/AVC
Bit rate : 10.3 Mbps
Width : 1 276 pixels
Height : 720 pixels
Display aspect ratio : 16:9
Frame rate mode : Variable
Original frame rate : 25.000 fps
Color space : YUV
Chroma subsampling : 4:2:0
Bit depth : 8 bits
Scan type : Progressive
Title : Comanche Moon (2008) E01
Writing library : x264 core 140 r2377kMod 1ca7bb9
Encoding settings : cabac=1 / ref=8 / deblock=1:-3:-3 / analyse=0x3:0x113 / me=umh / subme=11 / psy=1 / fade_compensate=0.00 / psy_rd=1.05:0.05 / mixed_ref=1 / me_range=32 / chroma_me=1 / trellis=2 / 8x8dct=1 / cqm=0 / deadzone=21,11 / fast_pskip=1 / chroma_qp_offset=-3 / threads=6 / lookahead_threads=1 / sliced_threads=0 / nr=0 / decimate=1 / interlaced=0 / bluray_compat=0 / constrained_intra=0 / fgo=0 / bframes=12 / b_pyramid=2 / b_adapt=2 / b_bias=0 / direct=1 / weightb=1 / open_gop=0 / weightp=2 / keyint=250 / keyint_min=25 / scenecut=40 / intra_refresh=0 / rc_lookahead=0 / rc=crf / mbtree=0 / crf=18.0000 / qcomp=0.75 / qpmin=0 / qpmax=69 / qpstep=4 / vbv_maxrate=50000 / vbv_bufsize=62500 / crf_max=0.0 / nal_hrd=none / filler=0 / ip_ratio=1.40 / pb_ratio=1.20 / aq=3:1.00
Language : English
Default : Yes
Forced : No
Matrix coefficients : BT.709
Audio #1
ID : 2
Format : AC-3
Format/Info : Audio Coding 3
Mode extension : CM (complete main)
Format settings, Endianness : Big
Codec ID : A_AC3
Duration : 1h 32mn
Bit rate mode : Constant
Bit rate : 448 Kbps
Channel(s) : 6 channels
Channel positions : Front: L C R, Side: L R, LFE
Sampling rate : 48.0 KHz
Bit depth : 16 bits
Compression mode : Lossy
Stream size : 295 MiB (4%)
Title : DVO Superbit
Language : Russian
Default : Yes
Forced : No
Audio #2
ID : 3
Format : AC-3
Format/Info : Audio Coding 3
Mode extension : CM (complete main)
Format settings, Endianness : Big
Codec ID : A_AC3
Duration : 1h 32mn
Bit rate mode : Constant
Bit rate : 640 Kbps
Channel(s) : 6 channels
Channel positions : Front: L C R, Side: L R, LFE
Sampling rate : 48.0 KHz
Bit depth : 16 bits
Compression mode : Lossy
Stream size : 422 MiB (5%)
Title : AVO Vizgunov
Language : Russian
Default : No
Forced : No
Audio #3
ID : 4
Format : AC-3
Format/Info : Audio Coding 3
Mode extension : CM (complete main)
Format settings, Endianness : Big
Codec ID : A_AC3
Duration : 1h 32mn
Bit rate mode : Constant
Bit rate : 640 Kbps
Channel(s) : 6 channels
Channel positions : Front: L C R, Side: L R, LFE
Sampling rate : 48.0 KHz
Bit depth : 16 bits
Compression mode : Lossy
Stream size : 422 MiB (5%)
Title : Original
Language : English
Default : No
Forced : No
Text
ID : 5
Format : UTF-8
Codec ID : S_TEXT/UTF8
Codec ID/Info : UTF-8 Plain Text
Language : English
Default : No
Forced : No
Menu
00:00:00.000 : en:00:00:00.000
00:05:10.640 : en:00:05:10.640
00:12:58.120 : en:00:12:58.120
00:20:27.280 : en:00:20:27.280
00:30:45.520 : en:00:30:45.520
00:38:33.400 : en:00:38:33.400
00:46:34.640 : en:00:46:34.640
00:54:39.160 : en:00:54:39.160
01:04:38.040 : en:01:04:38.040
01:14:08.480 : en:01:14:08.480
01:21:45.120 : en:01:21:45.120
01:28:21.560 : en:01:28:21.560
E02
x264
--[Information] [10.02.2014 17:21:36] raw [info]: 1276x720p 1:1 @ 25/1 fps (cfr)
--[Information] [11.02.2014 9:50:56] x264 [info]: frame I:1031 Avg QP:15.05 size:158311
--[Information] [11.02.2014 9:50:56] x264 [info]: frame P:24528 Avg QP:16.83 size: 75244
--[Information] [11.02.2014 9:50:56] x264 [info]: frame B:107465 Avg QP:18.15 size: 49208
--[Information] [11.02.2014 9:50:56] x264 [info]: consecutive B-frames: 1.3% 1.2% 3.4% 11.0% 11.6% 55.2% 5.4% 1.3% 4.3% 1.8% 1.6% 1.5% 0.4%
--[Information] [11.02.2014 9:50:56] x264 [info]: kb/s:10970.79
General
Complete name : D:\...\Comanche.Moon.2008.E02.720p.BluRay.x264.DD5.1.Rus.Eng-E76.mkv
Format : Matroska
Format version : Version 2
File size : 7.87 GiB
Duration : 1h 28mn
Overall bit rate : 12.7 Mbps
Movie name : Comanche.Moon.2008.E02.720p.BluRay.x264.DD5.1.Rus.Eng-E76
Encoded date : UTC 2014-06-18 12:09:33
Writing application : mkvmerge v6.5.0 ('Isn't she lovely') built on Oct 20 2013 12:50:05
Writing library : libebml v1.3.0 + libmatroska v1.4.1
Video
ID : 1
Format : AVC
Format/Info : Advanced Video Codec
Format profile : High@L4.1
Format settings, CABAC : Yes
Format settings, ReFrames : 8 frames
Codec ID : V_MPEG4/ISO/AVC
Duration : 1h 28mn
Bit rate : 10.7 Mbps
Width : 1 276 pixels
Height : 720 pixels
Display aspect ratio : 16:9
Frame rate mode : Constant
Frame rate : 25.000 fps
Color space : YUV
Chroma subsampling : 4:2:0
Bit depth : 8 bits
Scan type : Progressive
Bits/(Pixel*Frame) : 0.467
Stream size : 6.64 GiB (84%)
Title : Comanche Moon (2008) E02
Writing library : x264 core 140 r2377kMod 1ca7bb9
Encoding settings : cabac=1 / ref=8 / deblock=1:-3:-3 / analyse=0x3:0x113 / me=umh / subme=11 / psy=1 / fade_compensate=0.00 / psy_rd=1.05:0.05 / mixed_ref=1 / me_range=32 / chroma_me=1 / trellis=2 / 8x8dct=1 / cqm=0 / deadzone=21,11 / fast_pskip=1 / chroma_qp_offset=-3 / threads=6 / lookahead_threads=1 / sliced_threads=0 / nr=0 / decimate=1 / interlaced=0 / bluray_compat=0 / constrained_intra=0 / fgo=0 / bframes=12 / b_pyramid=2 / b_adapt=2 / b_bias=0 / direct=1 / weightb=1 / open_gop=0 / weightp=2 / keyint=250 / keyint_min=25 / scenecut=40 / intra_refresh=0 / rc_lookahead=0 / rc=crf / mbtree=0 / crf=18.0000 / qcomp=0.75 / qpmin=0 / qpmax=69 / qpstep=4 / vbv_maxrate=50000 / vbv_bufsize=62500 / crf_max=0.0 / nal_hrd=none / filler=0 / ip_ratio=1.40 / pb_ratio=1.20 / aq=3:1.00
Language : English
Default : Yes
Forced : No
Matrix coefficients : BT.709
Audio #1
ID : 2
Format : AC-3
Format/Info : Audio Coding 3
Mode extension : CM (complete main)
Format settings, Endianness : Big
Codec ID : A_AC3
Duration : 1h 28mn
Bit rate mode : Constant
Bit rate : 448 Kbps
Channel(s) : 6 channels
Channel positions : Front: L C R, Side: L R, LFE
Sampling rate : 48.0 KHz
Bit depth : 16 bits
Compression mode : Lossy
Stream size : 284 MiB (4%)
Title : DVO Superbit
Language : Russian
Default : Yes
Forced : No
Audio #2
ID : 3
Format : AC-3
Format/Info : Audio Coding 3
Mode extension : CM (complete main)
Format settings, Endianness : Big
Codec ID : A_AC3
Duration : 1h 28mn
Bit rate mode : Constant
Bit rate : 640 Kbps
Channel(s) : 6 channels
Channel positions : Front: L C R, Side: L R, LFE
Sampling rate : 48.0 KHz
Bit depth : 16 bits
Compression mode : Lossy
Stream size : 406 MiB (5%)
Title : AVO Vizgunov
Language : Russian
Default : No
Forced : No
Audio #3
ID : 4
Format : AC-3
Format/Info : Audio Coding 3
Mode extension : CM (complete main)
Format settings, Endianness : Big
Codec ID : A_AC3
Duration : 1h 28mn
Bit rate mode : Constant
Bit rate : 640 Kbps
Channel(s) : 6 channels
Channel positions : Front: L C R, Side: L R, LFE
Sampling rate : 48.0 KHz
Bit depth : 16 bits
Compression mode : Lossy
Stream size : 406 MiB (5%)
Title : Original
Language : English
Default : No
Forced : No
Text
ID : 5
Format : UTF-8
Codec ID : S_TEXT/UTF8
Codec ID/Info : UTF-8 Plain Text
Language : English
Default : No
Forced : No
Menu
00:00:00.000 : en:00:00:00.000
00:06:39.560 : en:00:06:39.560
00:14:45.120 : en:00:14:45.120
00:22:47.320 : en:00:22:47.320
00:31:25.960 : en:00:31:25.960
00:41:02.320 : en:00:41:02.320
00:51:07.880 : en:00:51:07.880
00:58:17.720 : en:00:58:17.720
01:08:08.080 : en:01:08:08.080
01:16:37.600 : en:01:16:37.600
01:24:56.560 : en:01:24:56.560
E03
x264
--[Information] [17.02.2014 11:13:45] x264 [info]: frame I:996 Avg QP:16.04 size:146308
--[Information] [17.02.2014 11:13:45] x264 [info]: frame P:25130 Avg QP:17.99 size: 81895
--[Information] [17.02.2014 11:13:45] x264 [info]: frame B:111899 Avg QP:19.10 size: 46989
--[Information] [17.02.2014 11:13:45] x264 [info]: consecutive B-frames: 1.1% 0.6% 2.8% 11.9% 15.6% 47.7% 10.7% 2.0% 3.4% 2.1% 1.2% 0.5% 0.3%
--[Information] [17.02.2014 11:13:45] x264 [info]: kb/s:10812.26
General
Complete name : D:\...\Comanche.Moon.2008.E03.720p.BluRay.x264.DD5.1.Rus.Eng-E76.mkv
Format : Matroska
Format version : Version 2
File size : 8.06 GiB
Duration : 1h 32mn
Overall bit rate : 12.5 Mbps
Movie name : Comanche.Moon.2008.E03.720p.BluRay.x264.DD5.1.Rus.Eng-E76
Encoded date : UTC 2014-06-18 22:28:51
Writing application : mkvmerge v6.5.0 ('Isn't she lovely') built on Oct 20 2013 12:50:05
Writing library : libebml v1.3.0 + libmatroska v1.4.1
Video
ID : 1
Format : AVC
Format/Info : Advanced Video Codec
Format profile : High@L4.1
Format settings, CABAC : Yes
Format settings, ReFrames : 8 frames
Codec ID : V_MPEG4/ISO/AVC
Duration : 1h 32mn
Bit rate : 10.6 Mbps
Width : 1 276 pixels
Height : 720 pixels
Display aspect ratio : 16:9
Frame rate mode : Constant
Frame rate : 25.000 fps
Color space : YUV
Chroma subsampling : 4:2:0
Bit depth : 8 bits
Scan type : Progressive
Bits/(Pixel*Frame) : 0.460
Stream size : 6.79 GiB (84%)
Title : Comanche Moon (2008) E03
Writing library : x264 core 140 r2377kMod 1ca7bb9
Encoding settings : cabac=1 / ref=8 / deblock=1:-3:-3 / analyse=0x3:0x113 / me=umh / subme=11 / psy=1 / fade_compensate=0.00 / psy_rd=1.00:0.00 / mixed_ref=1 / me_range=32 / chroma_me=1 / trellis=2 / 8x8dct=1 / cqm=0 / deadzone=21,11 / fast_pskip=1 / chroma_qp_offset=-2 / threads=6 / lookahead_threads=1 / sliced_threads=0 / nr=0 / decimate=1 / interlaced=0 / bluray_compat=0 / constrained_intra=0 / fgo=0 / bframes=12 / b_pyramid=2 / b_adapt=2 / b_bias=0 / direct=1 / weightb=1 / open_gop=0 / weightp=2 / keyint=250 / keyint_min=25 / scenecut=40 / intra_refresh=0 / rc_lookahead=0 / rc=crf / mbtree=0 / crf=18.0000 / qcomp=0.70 / qpmin=0 / qpmax=69 / qpstep=4 / vbv_maxrate=50000 / vbv_bufsize=62500 / crf_max=0.0 / nal_hrd=none / filler=0 / ip_ratio=1.40 / pb_ratio=1.20 / aq=3:1.00
Language : English
Default : Yes
Forced : No
Matrix coefficients : BT.709
Audio #1
ID : 2
Format : AC-3
Format/Info : Audio Coding 3
Mode extension : CM (complete main)
Format settings, Endianness : Big
Codec ID : A_AC3
Duration : 1h 32mn
Bit rate mode : Constant
Bit rate : 448 Kbps
Channel(s) : 6 channels
Channel positions : Front: L C R, Side: L R, LFE
Sampling rate : 48.0 KHz
Bit depth : 16 bits
Compression mode : Lossy
Stream size : 295 MiB (4%)
Title : DVO Superbit
Language : Russian
Default : Yes
Forced : No
Audio #2
ID : 3
Format : AC-3
Format/Info : Audio Coding 3
Mode extension : CM (complete main)
Format settings, Endianness : Big
Codec ID : A_AC3
Duration : 1h 32mn
Bit rate mode : Constant
Bit rate : 640 Kbps
Channel(s) : 6 channels
Channel positions : Front: L C R, Side: L R, LFE
Sampling rate : 48.0 KHz
Bit depth : 16 bits
Compression mode : Lossy
Stream size : 421 MiB (5%)
Title : AVO Vizgunov
Language : Russian
Default : No
Forced : No
Audio #3
ID : 4
Format : AC-3
Format/Info : Audio Coding 3
Mode extension : CM (complete main)
Format settings, Endianness : Big
Codec ID : A_AC3
Duration : 1h 32mn
Bit rate mode : Constant
Bit rate : 640 Kbps
Channel(s) : 6 channels
Channel positions : Front: L C R, Side: L R, LFE
Sampling rate : 48.0 KHz
Bit depth : 16 bits
Compression mode : Lossy
Stream size : 421 MiB (5%)
Title : Original
Language : Russian
Default : No
Forced : No
Text
ID : 5
Format : UTF-8
Codec ID : S_TEXT/UTF8
Codec ID/Info : UTF-8 Plain Text
Language : English
Default : No
Forced : No
Menu
00:00:00.000 : en:00:00:00.000
00:08:18.760 : en:00:08:18.760
00:16:12.360 : en:00:16:12.360
00:24:16.200 : en:00:24:16.200
00:33:29.720 : en:00:33:29.720
00:41:30.040 : en:00:41:30.040
00:53:02.600 : en:00:53:02.600
01:03:50.800 : en:01:03:50.800
01:14:04.120 : en:01:14:04.120
01:21:15.760 : en:01:21:15.760
01:28:18.560 : en:01:28:18.560
Скриншоты
source vs E76 vs SAiMORNY (scene)
E01



E02



E03


Скачать

Скачать торрент!

Как скачивать? · Что такое торрент? · Рейтинг и ограничения

Сайт не распространяет и не хранит электронные версии произведений, а лишь предоставляет доступ к создаваемому пользователями каталогу ссылок на торрент-файлы, которые содержат только списки хеш-сумм

[Профиль] [ЛС]
Показать сообщения:    
Ответить на тему

Текущее время: Сегодня 08:02

Часовой пояс: GMT + 4



Вы не можете начинать темы
Вы не можете отвечать на сообщения
Вы не можете редактировать свои сообщения
Вы не можете удалять свои сообщения
Вы не можете голосовать в опросах
Вы не можете прикреплять файлы к сообщениям
Вы не можете скачивать файлы