Сквозь объектив / Picture This (Стивен Херек / Stephen Herek) [2008, США, мелодрама, комедия, WEB-DL 720p] MVO + Sub Rus, Eng + Original Eng

Ответить на тему
 
Автор Сообщение

user ®

Стаж: 7 лет 7 месяцев

Сообщений: 20008

Пост Пост: #1 от 25-Июн-2014 00:00

[Цитировать]

Сквозь объектив / Picture This Страна: США
Жанр: мелодрама, комедия
Год выпуска: 2008
Продолжительность: 01:32:33
Перевод: Профессиональный (многоголосый закадровый)
Cубтитры: русские, английские
Оригинальная аудиодорожка: английский
Режиссер: Стивен Херек
В ролях: Эшли Тисдэйл, Кевин Поллак, Робби Амелл, Шинае Гримс, Лоурен Коллинз, Синди Басби, Анджела Галуппо, Максим Рой, Мэттью Раудсепп
Описание: Самый популярный парень в школе только что пригласил Мэнди на самую крутую вечеринку года, но есть одна проблема — у нее очень строгие родители. Мэнди отпускают из дома под предлогом того, что она идет к подругам «заниматься», но с одним условием. Каждые пол часа она должна связываться с папой по мобильному телефону, используя видео связь. Теперь Мэнди и ее друзьям нужно придумать, как использовать технический прогресс в свою пользу, чтобы пройти на вечеринку и избежать всевидящего ока отца.
Сэмпл: [url=http://www.mediafire.com/watch/y89mugohfwpyp7u/%5B2008%5D_Picture_This_(1)]mediafire[/url]
Тип релиза: WEB-DL 720p
Контейнер: MKV
Видео: AVC, 1280x720, 23.976fps, 3810kbps
Аудио #1: AC3, 48000Hz, 6ch, 448kbps RUS
Аудио #2: AC3, 48000Hz, 6ch, 384kbps ENG
Субтитры: softsub (SRT) вшитые
MediaInfo
General
Unique ID : 178094419428447322728869064883057012905 (0x85FBBCCECD5AE3A9BC6751A0E20130A9)
Complete name : E:\!torents\Сквозь объектив\[2008] Picture This.mkv
Format : Matroska
Format version : Version 4 / Version 2
File size : 3.06 GiB
Duration : 1h 32mn
Overall bit rate : 4 737 Kbps
Encoded date : UTC 2014-06-20 12:59:09
Writing application : mkvmerge v6.9.1 ('Blue Panther') 64bit built on Apr 18 2014 18:23:38
Writing library : libebml v1.3.0 + libmatroska v1.4.1
Video
ID : 1
Format : AVC
Format/Info : Advanced Video Codec
Format profile : High@L3.1
Format settings, CABAC : No
Format settings, ReFrames : 2 frames
Format settings, GOP : M=2, N=73
Codec ID : V_MPEG4/ISO/AVC
Duration : 1h 32mn
Bit rate : 3 810 Kbps
Width : 1 280 pixels
Height : 720 pixels
Display aspect ratio : 16:9
Frame rate : 23.976 fps
Color space : YUV
Chroma subsampling : 4:2:0
Bit depth : 8 bits
Scan type : Progressive
Bits/(Pixel*Frame) : 0.172
Stream size : 2.46 GiB (80%)
Title : WEB-DL 720p by fozzy412
Language : English
Color primaries : BT.709-5, BT.1361, IEC 61966-2-4, SMPTE RP177
Transfer characteristics : BT.709-5, BT.1361
Matrix coefficients : BT.709-5, BT.1361, IEC 61966-2-4 709, SMPTE RP177
Audio #1
ID : 2
Format : AC-3
Format/Info : Audio Coding 3
Mode extension : CM (complete main)
Codec ID : A_AC3
Duration : 1h 32mn
Bit rate mode : Constant
Bit rate : 448 Kbps
Channel(s) : 6 channels
Channel positions : Front: L C R, Side: L R, LFE
Sampling rate : 48.0 KHz
Bit depth : 16 bits
Compression mode : Lossy
Stream size : 297 MiB (9%)
Language : Russian
Audio #2
ID : 3
Format : AC-3
Format/Info : Audio Coding 3
Mode extension : CM (complete main)
Codec ID : A_AC3
Duration : 1h 32mn
Bit rate mode : Constant
Bit rate : 384 Kbps
Channel(s) : 6 channels
Channel positions : Front: L C R, Side: L R, LFE
Sampling rate : 48.0 KHz
Bit depth : 16 bits
Compression mode : Lossy
Stream size : 254 MiB (8%)
Language : English
Text #1
ID : 4
Format : UTF-8
Codec ID : S_TEXT/UTF8
Codec ID/Info : UTF-8 Plain Text
Title : fozzy412
Language : Russian
Text #2
ID : 5
Format : UTF-8
Codec ID : S_TEXT/UTF8
Codec ID/Info : UTF-8 Plain Text
Title : CtrlHD
Language : English
Скриншоты
Скачать

Скачать торрент!

Как скачивать? · Что такое торрент? · Рейтинг и ограничения

Сайт не распространяет и не хранит электронные версии произведений, а лишь предоставляет доступ к создаваемому пользователями каталогу ссылок на торрент-файлы, которые содержат только списки хеш-сумм

[Профиль] [ЛС]
Показать сообщения:    
Ответить на тему

Текущее время: Сегодня 10:47

Часовой пояс: GMT + 4



Вы не можете начинать темы
Вы не можете отвечать на сообщения
Вы не можете редактировать свои сообщения
Вы не можете удалять свои сообщения
Вы не можете голосовать в опросах
Вы не можете прикреплять файлы к сообщениям
Вы не можете скачивать файлы