Спартак: Война проклятых / Spartacus: War of the Damned / Сезон: 3 / Серии: 1-10 (10) (Майкл Хёрст) [2013, боевик, драма, приключения, история, HDTVRip] MVO (LostFilm)

Ответить на тему
 
Автор Сообщение

LORN-V ®

Пол:

Стаж: 4 года 6 месяцев

Сообщений: 1185

Откуда: Munchen

Пост Пост: #1 от 24-Июн-2014 13:21

[Цитировать]

Спартак: Война проклятых / Spartacus: War of the Damned- Год выпуска: 2013
Страна: США | Starz
Жанр: Драма, фэнтези, биография, приключения, боевик
Продолжительность: ~ 00:55:00 серия
Перевод: профессиональный (многоголосый, закадровый) /
Субтитры: Отсутствуют
Режиссер: Майкл Хёрст
В ролях: Лиам МакИнтайр, Ману Беннет, Дастин Клер, Дэниэл Фьюрриджел, Тодд Ласанс, Саймон Меррелс, Синтия Аддай-Робинсон, Эллен Холлман и др.-Описание:-К восстанию Спартака присоединились тысячи. Вместе с Криксом и Ганником он побеждает одного римского командира за другим. Отчаявшись, Рим обращается за помощью к богатому, амбициозному Марку Крассу и молодому Юлию Цезарю.
Сэмпл / ImDB / Кинопоиск-Качество: HDTVRip
Формат: AVI
Видео кодек: XviD
Аудио кодек: MP3
Видео: 624x352 (1.77:1), 23.976 fps, 970 kbps avg, 0.18 bit/pixel
Аудио 1: 48.0 KHz, 2 ch, 128 Kbps |LostFilm|
Аудио 2: 48.0 KHz, 2 ch, 128 Kbps |Original|-

Внимание! Раздача ведётся путём добавления новых серий

Внимание! Раздача ведётся путём добавления новых серий; при каждом добавлении создаётся новый торрент. Чтобы начать докачку новой серии, пользователям необходимо сделать следующее: (1) остановить скачивание, (2) удалить старый торрент у себя из клиента (старые серии удалять не надо), (3) скачать новый торрент и запустить его у себя в клиенте вместо старого, при этом указать клиенту путь в старую папку куда и должно происходить скачивание новых серий.
Ваш клиент при этом должен произвести хеширование (проверку) старой папки (если не производит сам - помогите ему сделать это), и будет докачивать только те серии которых у вас ещё нет. Старые серии при этом не удаляются, а продолжают раздаваться!
Eсли вы уже удалили старые серии, то предотвратить повторную закачку старых серий можно, отжав галочку в соответствующих местах при запуске нового торрента.

MediaInfo

Общее
Полное имя : I:\Спартак (Сезон 3) LostFilm\Spartacus.War.of.the.Damned.S03E01.LostFilm.avi
Формат : AVI
Формат/Информация : Audio Video Interleave
Размер файла : 449 Мбайт
Продолжительность : 50 м.
Общий поток : 1237 Кбит/сек
Программа кодирования : VirtualDubMod 1.5.10.3 | www.virtualdub-fr.org || (build 2550/release)
Библиотека кодирования : VirtualDubMod build 2550/release
Видео
Идентификатор : 0
Формат : MPEG-4 Visual
Профиль формата : Advanced Simple@L5
Параметр BVOP формата : 1
Параметр QPel формата : Нет
Параметр GMC формата : Без точки перехода
Параметр матрицы формата : Выборочная
Идентификатор кодека : XVID
Идентификатор кодека/Подсказка : XviD
Продолжительность : 50 м.
Битрейт : 967 Кбит/сек
Ширина : 624 пикселя
Высота : 352 пикселя
Соотношение сторон : 16:9
Частота кадров : 23,976 кадра/сек
Цветовое пространство : YUV
Субдискретизация насыщенности : 4:2:0
Битовая глубина : 8 бит
Тип развёртки : Прогрессивная
Метод сжатия : С потерями
Бит/(Пиксели*Кадры) : 0.184
Размер потока : 351 Мбайт (78%)
Библиотека кодирования : XviD 63
Аудио #1
Идентификатор : 1
Формат : MPEG Audio
Версия формата : Version 1
Профиль формата : Layer 3
Режим : Joint stereo
Расширение режима : MS Stereo
Идентификатор кодека : 55
Идентификатор кодека/Подсказка : MP3
Продолжительность : 50 м.
Вид битрейта : Постоянный
Битрейт : 128 Кбит/сек
Каналы : 2 канала
Частота : 48,0 КГц
Метод сжатия : С потерями
Размер потока : 46,5 Мбайт (10%)
Выравнивание : Соединение по промежуткам
Продолжительность промежутка : 42 мс. (1,00 видеокадр)
Время предзагрузки промежутка : 504 мс.
Аудио #2
Идентификатор : 2
Формат : MPEG Audio
Версия формата : Version 1
Профиль формата : Layer 3
Режим : Joint stereo
Расширение режима : MS Stereo
Идентификатор кодека : 55
Идентификатор кодека/Подсказка : MP3
Продолжительность : 50 м.
Вид битрейта : Постоянный
Битрейт : 128 Кбит/сек
Каналы : 2 канала
Частота : 48,0 КГц
Метод сжатия : С потерями
Размер потока : 46,5 Мбайт (10%)
Выравнивание : Соединение по промежуткам
Продолжительность промежутка : 42 мс. (1,00 видеокадр)
Время предзагрузки промежутка : 504 мс.
-

Скриншоты

Скачать

Скачать торрент!

Как скачивать? · Что такое торрент? · Рейтинг и ограничения

Сайт не распространяет и не хранит электронные версии произведений, а лишь предоставляет доступ к создаваемому пользователями каталогу ссылок на торрент-файлы, которые содержат только списки хеш-сумм


_________________
[Профиль] [ЛС]
Показать сообщения:    
Ответить на тему

Текущее время: Сегодня 18:05

Часовой пояс: GMT + 4



Вы не можете начинать темы
Вы не можете отвечать на сообщения
Вы не можете редактировать свои сообщения
Вы не можете удалять свои сообщения
Вы не можете голосовать в опросах
Вы не можете прикреплять файлы к сообщениям
Вы не можете скачивать файлы