Спартак: Боги Арены / Spartacus: Gods of the Arena / 1 Сезон (6 серий из 6) (2011 г., Драма, История, HDTVRip)

Ответить на тему
 
Автор Сообщение

LORN-V ®

Пол:

Стаж: 4 года 6 месяцев

Сообщений: 1185

Откуда: Munchen

Пост Пост: #1 от 24-Июн-2014 13:19

[Цитировать]

Спартак: Боги Арены / Spartacus: Gods of the Arena- -Год выпуска: 2011
Страна: США
Жанр: Драма, История
Продолжительность: 50-55 мин.
Перевод: профессиональный (многоголосый, закадровый)
Режиссер: Рик Джейкобсон
В ролях: Лесли-Энн Брандт, Люси Лоулесс, Джессика Грэйс Смит, Ник Тарабэй, Райхо Василев, Мариса Рамирез, Ману Беннетт, Дастин Клер, Джон Ханна, Питер Менса
-Описание:-Дом Батиата возвышался над городом Капуя многие годы. "Спартак: Боги арены" расскажет нам о его кровавой истории до появления Спартака и смерти, которую он принёс с собой. Это время, когда амбициозный Квинт Лентул Батиат принимает бразды правления от своего отца, чтобы вернуть дому былую славу. С его красавицей мастером интриг женой Лукрецией на своей стороне он не остановится ни перед чем, дабы увидеть свое имя вписанным в историю. Батиат ставит всё своё состояние на жуликоватого гладиатора Gannicus, чье мастерство владения мечем уступает лишь его жажде проживать каждый день так, будто он последний. Но есть те, кто хотят видеть Батиата и его чемпиона уничтоженными. Преданность будет проверена, жизнь разрушена, а битвы захватывающими.-Внимание!:-Сериал содержит сцены насилия и сексуального характера, не рекомендуется к просмотру лицам до 18 лет.-Качество: HDTVRip
Формат: AVI
Видео кодек: XviD
Аудио кодек: MP3
Видео: 704x400 (1.77:1), 23.976 fps, XviD build 50, 1296 kbps avg, 0.16 bit/pixel.
Аудио: 48 kHz, MPEG Layer 3, 2 ch, 192.00 kbps avg.-

Список и дата показа оригинальных серий

01. Past Transgressions / Прошлые грехи
02. Mission / Миссия
03. Paterfamilias / Глава семьи
04. Beneath the Mask / Под маской
05. Reckoning / Счет
06. The Bitter End / Горький конец
25 February 2011 (USA)
-

MI

E:\ЗАГРУЗКА\Spartacus.Gods.of.the.Arena.s01.rus.LostFilm.TV\Spartacus.Gods.of.the.Arena.s01e04.rus.LostFilm.TV.avi
General
Complete name : E:\ЗАГРУЗКА\Spartacus.Gods.of.the.Arena.s01.rus.LostFilm.TV\Spartacus.Gods.of.the.Arena.s01e04.rus.LostFilm.TV.avi
Format : AVI
Format/Info : Audio Video Interleave
File size : 479 MiB
Duration : 52mn 57s
Overall bit rate : 1 264 Kbps
Writing application : Nandub v1.0rc2
Writing library : Nandub build 1853/release
Video #0
ID : 0
Format : MPEG-4 Visual
Format profile : Simple@L3
Format settings, BVOP : No
Format settings, QPel : No
Format settings, GMC : No warppoints
Format settings, Matrix : Default (H.263)
Codec ID : XVID
Codec ID/Hint : XviD
Duration : 52mn 57s
Bit rate : 1 064 Kbps
Width : 704 pixels
Height : 400 pixels
Display aspect ratio : 16:9
Frame rate : 23.976 fps
Resolution : 8 bits
Colorimetry : 4:2:0
Scan type : Progressive
Bits/(Pixel*Frame) : 0.158
Stream size : 403 MiB (84%)
Writing library : XviD 1.2.1 (UTC 2008-12-04)
Audio #1
ID : 1
Format : MPEG Audio
Format version : Version 1
Format profile : Layer 3
Format_Settings_Mode : Joint stereo
Format_Settings_ModeExtension : MS Stereo
Codec ID : 55
Codec ID/Hint : MP3
Duration : 52mn 57s
Bit rate mode : Variable
Bit rate : 188 Kbps
Nominal bit rate : 192 Kbps
Channel(s) : 2 channels
Sampling rate : 48.0 KHz
Stream size : 71.1 MiB (15%)
Alignment : Aligned on interleaves
Interleave, duration : 24 ms (0.58 video frame)
Interleave, preload duration : 478 ms
Writing library : LAME3.97b
Encoding settings : -m j -V 4 -q 3 -lowpass 18.6 --abr 192
-

Скриншоты

-
Скачать

Скачать торрент!

Как скачивать? · Что такое торрент? · Рейтинг и ограничения

Сайт не распространяет и не хранит электронные версии произведений, а лишь предоставляет доступ к создаваемому пользователями каталогу ссылок на торрент-файлы, которые содержат только списки хеш-сумм


_________________
[Профиль] [ЛС]
Показать сообщения:    
Ответить на тему

Текущее время: Сегодня 01:49

Часовой пояс: GMT + 4



Вы не можете начинать темы
Вы не можете отвечать на сообщения
Вы не можете редактировать свои сообщения
Вы не можете удалять свои сообщения
Вы не можете голосовать в опросах
Вы не можете прикреплять файлы к сообщениям
Вы не можете скачивать файлы