Любовь сквозь время / Winter\'s Tale (Акива Голдсман / Akiva Goldsman) [2014, США, фэнтези, драма, мелодрама, детектив, BDRip 1080p] Dub + Original (Eng) + Sub (Rus, Eng)

Ответить на тему
 
Автор Сообщение

user ®

Стаж: 7 лет 7 месяцев

Сообщений: 20008

Пост Пост: #1 от 24-Июн-2014 02:40

[Цитировать]

Любовь сквозь время / Winter's Tale
Страна: США
Производство: Village Roadshow Pictures, Warner Bros., Weed Road Pictures
Жанр: фэнтези, драма, мелодрама, детектив
Год выпуска: 2014
Продолжительность: 01:58:05
Перевод: Профессиональный (дублированный) Blu-ray CEE
Оригинальная аудиодорожка: английская
Cубтитры: русские, английские
Режиссер: Акива Голдсман / Akiva Goldsman
В ролях: Колин Фаррелл, Джессика Браун-Финдли, Дженнифер Коннелли, Уильям Хёрт, Ева Мари Сейнт, Расселл Кроу, Уилл Смит, Мэттью Бомер, Кевин Дьюранд, Люси Гриффитс, Кевин Корригэн, Грэм Грин, Финн Уиттрок, Кэйтлин Дюлэйни, Роб Кемпбелл, Норм Льюис
Описание: Действие фильма происходит одновременно в XIX веке и в наше время на Манхэттене. Воришка Питер Лэйк влюбляется в умирающую Беверли Пенн, девушку, живущую в доме, который он только что обчистил. Любовь его может оказаться не только чистой и искренней, но еще и последней, так как по пятам за ним ходят приспешники босса местной мафии, который намеревается прикончить Питера. Однажды, когда гангстерам почти удается отправить паренька на тот свет, его спасает… волшебный белый конь. Спустя некоторое время, удирая от очередной бригады бандитов, конь и его мальчик врезаются в стену из облаков и исчезают на многие годы. Возвращаются они тогда, когда в Нью-Йорке бушует пожар, и Питер обнаруживает в себе качества настоящего Мессии: он видит и слышит то, что недоступно другим; он помнит всех умерших и творит чудеса, достойные самого Спасителя.

Релиз: fanatus
Качество видео: BDRip 1080p
Исходник: Winters.Tale.2014.COMPLETE.BLURAY-HDCLUB
Контейнер: MKV
Видео: MPEG-4 AVC, 10.8 Mbps , 1920x800 (2.40:1), 23.976 fps, 0.293 bit/pixel
Аудио 1: русский (AC3, 6 ch, 48 kHz, 640 kbps)
Аудио 2: английский (DTS, 6 ch, 48 kHz, 1510 kbps)
Формат субтитров: softsub (SRT)
Главы: есть
MediaInfo
General
Unique ID : 242944055018052655075696053220727081677 (0xB6C552B28DBD408C85C7D87ECFE04ACD)
Complete name : E:\Ljubov_skvoz_vremja.2014.x264.BDRip.1080p.fanatus.mkv
Format : Matroska
Format version : Version 2
File size : 10.7 GiB
Duration : 1h 58mn
Overall bit rate : 12.9 Mbps
Movie name : Winter's Tale (2014) - fanatus
Encoded date : UTC 2014-06-19 05:31:35
Writing application : mkvmerge v3.4.0 ('Rapunzel') сборка от May 15 2010 09:38:20
Writing library : libebml v0.8.0 + libmatroska v0.9.0
Attachment : Yes
Video
ID : 1
Format : AVC
Format/Info : Advanced Video Codec
Format profile : High@L4.1
Format settings, CABAC : Yes
Format settings, ReFrames : 5 frames
Codec ID : V_MPEG4/ISO/AVC
Duration : 1h 58mn
Bit rate : 10.8 Mbps
Width : 1 920 pixels
Height : 800 pixels
Display aspect ratio : 2.40:1
Frame rate : 23.976 fps
Color space : YUV
Chroma subsampling : 4:2:0
Bit depth : 8 bits
Scan type : Progressive
Bits/(Pixel*Frame) : 0.293
Stream size : 8.69 GiB (81%)
Title : Winter's Tale (2014) BDRip(1080p)
Writing library : x264 core 142 r2431+42 c69a006 tMod [8-bit@all X86]
Encoding settings : cabac=1 / ref=5 / deblock=1:-3:-3 / analyse=0x3:0x113 / me=tesa / subme=11 / psy=1 / fade_compensate=0.00 / psy_rd=1.10:0.00 / mixed_ref=1 / me_range=48 / chroma_me=1 / trellis=2 / 8x8dct=1 / cqm=0 / deadzone=21,11 / fast_pskip=0 / chroma_qp_offset=-2 / threads=16 / lookahead_threads=4 / sliced_threads=0 / nr=0 / decimate=0 / interlaced=0 / bluray_compat=0 / constrained_intra=0 / fgo=0 / bframes=10 / b_pyramid=2 / b_adapt=2 / b_bias=0 / direct=3 / weightb=1 / open_gop=0 / weightp=2 / keyint=240 / keyint_min=23 / scenecut=40 / intra_refresh=0 / rc_lookahead=240 / rc=2pass / mbtree=0 / bitrate=10800 / ratetol=1.0 / qcomp=0.70 / qpmin=0:0:0 / qpmax=69:69:69 / qpstep=4 / cplxblur=20.0 / qblur=0.5 / vbv_maxrate=50000 / vbv_bufsize=62500 / nal_hrd=none / filler=0 / ip_ratio=1.40 / pb_ratio=1.30 / aq=3:0.80 / aq-sensitivity=10.00 / aq-factor=1.00:1.00:1.00 / aq2=0 / aq3=0
Language : English
Default : Yes
Forced : No
Audio #1
ID : 2
Format : AC-3
Format/Info : Audio Coding 3
Mode extension : CM (complete main)
Format settings, Endianness : Big
Codec ID : A_AC3
Duration : 1h 58mn
Bit rate mode : Constant
Bit rate : 640 Kbps
Channel(s) : 6 channels
Channel positions : Front: L C R, Side: L R, LFE
Sampling rate : 48.0 KHz
Bit depth : 16 bits
Compression mode : Lossy
Stream size : 541 MiB (5%)
Title : Dub (Blu-ray CEE)
Language : Russian
Default : Yes
Forced : No
Audio #2
ID : 3
Format : DTS
Format/Info : Digital Theater Systems
Codec ID : A_DTS
Duration : 1h 58mn
Bit rate mode : Constant
Bit rate : 1 510 Kbps
Channel(s) : 6 channels
Channel positions : Front: L C R, Side: L R, LFE
Sampling rate : 48.0 KHz
Bit depth : 24 bits
Compression mode : Lossy
Stream size : 1.25 GiB (12%)
Title : Original
Language : English
Default : No
Forced : No
Text #1
ID : 4
Format : UTF-8
Codec ID : S_TEXT/UTF8
Codec ID/Info : UTF-8 Plain Text
Title : Forced
Language : Russian
Default : Yes
Forced : Yes
Text #2
ID : 5
Format : UTF-8
Codec ID : S_TEXT/UTF8
Codec ID/Info : UTF-8 Plain Text
Title : Full
Language : Russian
Default : No
Forced : No
Text #3
ID : 6
Format : UTF-8
Codec ID : S_TEXT/UTF8
Codec ID/Info : UTF-8 Plain Text
Title : Full
Language : English
Default : No
Forced : No
Text #4
ID : 7
Format : UTF-8
Codec ID : S_TEXT/UTF8
Codec ID/Info : UTF-8 Plain Text
Title : SDH
Language : English
Default : No
Forced : No
Menu
00:00:00.000 : en:Chapter 01
00:10:45.853 : en:Chapter 02
00:20:09.958 : en:Chapter 03
00:30:41.047 : en:Chapter 04
00:40:14.453 : en:Chapter 05
00:52:37.904 : en:Chapter 06
01:00:17.447 : en:Chapter 07
01:09:26.996 : en:Chapter 08
01:20:44.005 : en:Chapter 09
01:30:54.991 : en:Chapter 10
01:39:53.654 : en:Chapter 11
01:50:38.506 : en:Chapter 12
01:58:04.744 : en:Chapter 13
x264 [info]
x264 [info]: 1920x800p 1:1 @ 24000/1001 fps (cfr)
x264 [info]: frame I:1225 Avg QP: 9.75 size:275893
x264 [info]: frame P:40990 Avg QP:12.29 size:113063
x264 [info]: frame B:127655 Avg QP:13.90 size: 35894
x264 [info]: consecutive B-frames: 2.8% 5.4% 6.9% 37.1% 12.8% 17.5% 6.4% 9.8% 0.7% 0.2% 0.4%
x264 [info]: mb I I16..4: 5.8% 73.0% 21.2%
x264 [info]: mb P I16..4: 0.7% 16.5% 1.3% P16..4: 24.5% 33.7% 19.0% 0.0% 0.0% skip: 4.4%
x264 [info]: mb B I16..4: 0.1% 0.9% 0.1% B16..8: 34.5% 27.0% 6.9% direct: 7.8% skip:22.8% L0:46.5% L1:40.3% BI:13.2%
x264 [info]: 8x8 transform intra:86.4% inter:35.0%
x264 [info]: direct mvs spatial:99.2% temporal:0.8%
x264 [info]: coded y,uvDC,uvAC intra: 95.4% 92.7% 86.4% inter: 40.2% 25.3% 16.1%
x264 [info]: i16 v,h,dc,p: 47% 13% 7% 34%
x264 [info]: i8 v,h,dc,ddl,ddr,vr,hd,vl,hu: 11% 10% 17% 9% 10% 10% 10% 11% 12%
x264 [info]: i4 v,h,dc,ddl,ddr,vr,hd,vl,hu: 11% 11% 11% 8% 13% 12% 12% 9% 12%
x264 [info]: i8c dc,h,v,p: 57% 16% 15% 12%
x264 [info]: Weighted P-Frames: Y:2.2% UV:0.8%
x264 [info]: ref P L0: 56.2% 7.0% 20.9% 7.7% 7.6% 0.7% 0.0%
x264 [info]: ref B L0: 84.3% 11.5% 3.3% 0.9%
x264 [info]: ref B L1: 95.3% 4.7%
x264 [info]: kb/s:10788.41
x264 [info]: encoded 169870 frames, 1.133 fps, 10788.41 kb/s, 9111.9 MB
x264 [info]: ended at Wed Jun 18 03:08:09 2014
x264 [info]: encoding duration 41:39:16
Скриншот c названием фильма Скриншоты Source vs Rip
Скачать

Скачать торрент!

Как скачивать? · Что такое торрент? · Рейтинг и ограничения

Сайт не распространяет и не хранит электронные версии произведений, а лишь предоставляет доступ к создаваемому пользователями каталогу ссылок на торрент-файлы, которые содержат только списки хеш-сумм

[Профиль] [ЛС]
Показать сообщения:    
Ответить на тему

Текущее время: Сегодня 00:40

Часовой пояс: GMT + 4



Вы не можете начинать темы
Вы не можете отвечать на сообщения
Вы не можете редактировать свои сообщения
Вы не можете удалять свои сообщения
Вы не можете голосовать в опросах
Вы не можете прикреплять файлы к сообщениям
Вы не можете скачивать файлы