Разумное сомнение / Reasonable Doubt (Питер Хауит / Peter Howitt) [2014, Германия, Канада, триллер, криминал, BDRip 720p] MVO + VO (Kyberpunk) + Original eng + Sub rus, eng

Ответить на тему
 
Автор Сообщение

user ®

Стаж: 7 лет 7 месяцев

Сообщений: 20008

Пост Пост: #1 от 24-Июн-2014 02:40

[Цитировать]

Разумное сомнение / Reasonable Doubt
Страна: Германия, Канада
Жанр: триллер, криминал
Год выпуска: 2014
Продолжительность: 01:31:18
Перевод#1: Профессиональный (многоголосый закадровый) | Позитив
Перевод#2: Одноголосый закадровый, М. Яроцкий aka Kyberpunk
Cубтитры: русские (notabenoid), английские
Оригинальная аудиодорожка: английский
Режиссер: Питер Хауит / Peter Howitt
В ролях: Доминик Купер, Сэмюэл Л. Джексон, Эрин Карплак, Глория Рубен, Райан Роббинс, Дилан Тейлор, Лэйн Стайлз, Филипп Бреннинкмейер, Джон Б. Лоу, Джессика Бёрлсон
Описание: Жизнь окружного прокурора переворачивается с ног на голову, когда он попадает в аварию и сбивает человека, а за его преступление другого человека арестовывают и обвиняют в убийстве...

Доп. информация: Позитив слабый, срезан на 15kHz, но другого пока нет к сож. Яроцкий с HDTRACKER, всем спасибо
Тип релиза: BDRip 720p (by HDWinG) | sample
Контейнер: MKV
Видео кодек: x264
Видео: AVC 1280x534 (2.40:1), 23.976 fps, ~5600 Kbps, 0.34 bit/pixel
Аудио #1: Russian AC3 2ch 48kHz 224Kbps | MVO Позитив
Аудио #2: Russian AC3 6ch 48kHz 640Kbps | VO Яроцкий
Аудио #3: English AC3 6ch 48kHz 640Kbps | Original
Формат субтитров: softsub (SRT)
Главы: есть

MediaInfo | x264
x264
x264 [info]: frame I:961 Avg QP:11.06 size:115417
x264 [info]: frame P:25657 Avg QP:12.01 size: 51330
x264 [info]: frame B:104730 Avg QP:12.70 size: 22472
x264 [info]: consecutive B-frames: 2.0% 2.0% 7.9% 8.6% 13.1% 38.8% 8.5% 6.1% 13.0%
General
Complete name : E:\...\Reasonable.Doubt.2014.720p.BluRay.x264.2xRus.Eng-HDWinG.mkv
Format : Matroska
Format version : Version 2
File size : 4.48 GiB
Duration : 1h 31mn
Overall bit rate : 7 029 Kbps
Movie name : Reasonable.Doubt.2014.720p.BluRay.x264.2xRus.Eng-HDWinG
Encoded date : UTC 2014-06-19 15:53:54
Writing application : mkvmerge v6.5.0 ('Isn't she lovely') built on Oct 20 2013 12:50:05
Writing library : libebml v1.3.0 + libmatroska v1.4.1
Video
ID : 1
Format : AVC
Format/Info : Advanced Video Codec
Format profile : High@L4.1
Format settings, CABAC : Yes
Format settings, ReFrames : 12 frames
Codec ID : V_MPEG4/ISO/AVC
Bit rate : 5 600 Kbps
Width : 1 280 pixels
Height : 534 pixels
Display aspect ratio : 2.40:1
Frame rate mode : Variable
Original frame rate : 23.976 fps
Color space : YUV
Chroma subsampling : 4:2:0
Bit depth : 8 bits
Scan type : Progressive
Bits/(Pixel*Frame) : 0.342
Title : Reasonable Doubt (2014)
Writing library : x264 core 140 r2377+40 929f149 tMod [8-bit@4:2:0 X86_64]
Encoding settings : cabac=1 / ref=12 / deblock=1:-3:-3 / analyse=0x3:0x113 / me=umh / subme=11 / psy=1 / fade_compensate=0.00 / psy_rd=1.10:0.00 / mixed_ref=1 / me_range=32 / chroma_me=1 / trellis=2 / 8x8dct=1 / cqm=0 / deadzone=21,11 / fast_pskip=0 / chroma_qp_offset=-2 / threads=18 / lookahead_threads=3 / sliced_threads=0 / nr=0 / decimate=0 / interlaced=0 / bluray_compat=0 / constrained_intra=0 / fgo=0 / bframes=8 / b_pyramid=2 / b_adapt=2 / b_bias=0 / direct=3 / weightb=1 / open_gop=0 / weightp=2 / keyint=240 / keyint_min=24 / scenecut=40 / intra_refresh=0 / rc=2pass / mbtree=0 / bitrate=5600 / ratetol=1.0 / qcomp=0.70 / qpmin=0:0:0 / qpmax=69:69:69 / qpstep=4 / cplxblur=20.0 / qblur=0.5 / ip_ratio=1.10 / pb_ratio=1.20 / aq=4:0.75 / aq-sensitivity=10.00 / aq-factor=1.00:1.00:1.00 / aq2=0 / aq3=0
Language : English
Default : Yes
Forced : No
Audio #1
ID : 2
Format : AC-3
Format/Info : Audio Coding 3
Mode extension : CM (complete main)
Format settings, Endianness : Big
Codec ID : A_AC3
Duration : 1h 31mn
Bit rate mode : Constant
Bit rate : 224 Kbps
Channel(s) : 2 channels
Channel positions : Front: L R
Sampling rate : 48.0 KHz
Bit depth : 16 bits
Compression mode : Lossy
Stream size : 146 MiB (3%)
Title : MVO Pozitiv
Language : Russian
Default : Yes
Forced : No
Audio #2
ID : 3
Format : AC-3
Format/Info : Audio Coding 3
Mode extension : CM (complete main)
Format settings, Endianness : Big
Codec ID : A_AC3
Duration : 1h 31mn
Bit rate mode : Constant
Bit rate : 640 Kbps
Channel(s) : 6 channels
Channel positions : Front: L C R, Side: L R, LFE
Sampling rate : 48.0 KHz
Bit depth : 16 bits
Compression mode : Lossy
Stream size : 418 MiB (9%)
Title : VO Kyberpunk
Language : Russian
Default : No
Forced : No
Audio #3
ID : 4
Format : AC-3
Format/Info : Audio Coding 3
Mode extension : CM (complete main)
Format settings, Endianness : Big
Codec ID : A_AC3
Duration : 1h 31mn
Bit rate mode : Constant
Bit rate : 640 Kbps
Channel(s) : 6 channels
Channel positions : Front: L C R, Side: L R, LFE
Sampling rate : 48.0 KHz
Bit depth : 16 bits
Compression mode : Lossy
Stream size : 418 MiB (9%)
Title : Original
Language : English
Default : No
Forced : No
Text #1
ID : 5
Format : UTF-8
Codec ID : S_TEXT/UTF8
Codec ID/Info : UTF-8 Plain Text
Title : notabenoid
Language : Russian
Default : No
Forced : No
Text #2
ID : 6
Format : UTF-8
Codec ID : S_TEXT/UTF8
Codec ID/Info : UTF-8 Plain Text
Language : English
Default : No
Forced : No
Text #3
ID : 7
Format : UTF-8
Codec ID : S_TEXT/UTF8
Codec ID/Info : UTF-8 Plain Text
Title : SDH
Language : English
Default : No
Forced : No
Menu
00:00:00.000 : :00:00:00.000
00:05:23.990 : :00:05:23.990
00:12:43.888 : :00:12:43.888
00:15:54.829 : :00:15:54.829
00:24:05.569 : :00:24:05.569
00:27:10.420 : :00:27:10.420
00:29:47.703 : :00:29:47.703
00:35:27.959 : :00:35:27.959
00:40:31.346 : :00:40:31.346
00:44:28.791 : :00:44:28.791
00:50:40.454 : :00:50:40.454
00:54:05.325 : :00:54:05.325
00:59:09.963 : :00:59:09.963
01:06:54.886 : :01:06:54.886
01:11:29.285 : :01:11:29.285
01:17:59.383 : :01:17:59.383
Скриншоты
Скачать

Скачать торрент!

Как скачивать? · Что такое торрент? · Рейтинг и ограничения

Сайт не распространяет и не хранит электронные версии произведений, а лишь предоставляет доступ к создаваемому пользователями каталогу ссылок на торрент-файлы, которые содержат только списки хеш-сумм

[Профиль] [ЛС]
Показать сообщения:    
Ответить на тему

Текущее время: Сегодня 08:25

Часовой пояс: GMT + 4



Вы не можете начинать темы
Вы не можете отвечать на сообщения
Вы не можете редактировать свои сообщения
Вы не можете удалять свои сообщения
Вы не можете голосовать в опросах
Вы не можете прикреплять файлы к сообщениям
Вы не можете скачивать файлы