Заложница / Taken (Пьер Морель / Pierre Morel) [2008, Франция, Боевик, криминал, HDTV 1080i] Dub

Ответить на тему
 
Автор Сообщение

user ®

Стаж: 7 лет 7 месяцев

Сообщений: 20008

Пост Пост: #1 от 24-Июн-2014 02:40

[Цитировать]

Заложница / Taken
Страна: Франция
Жанр: Боевик, криминал
Год выпуска: 2008
Продолжительность: 01:23:02
Перевод: Профессиональный (дублированный)
Cубтитры: нет
Оригинальная аудиодорожка: нет
Режиссер: Пьер Морель / Pierre Morel
В ролях: Лиам Нисон, Мэгги Грэйс, Фамке Янссен, Ксандер Беркли, Кэйти Кэссиди, Оливье Рабурдин, Лиланд Орсер, Джон Грис, Дэвид Уоршофски, Холли Вэлэнс, Натан Риппи, Камилла Япи, Николя Жиро, Жерар Уоткинс, Горан Костич, Маркус Линдси
Описание: Бывший секретный агент, а ныне одинокий неудачник, Брайан вынужден уступить напору экс-жены и дать согласие на поездку семнадцатилетней дочери в Европу на каникулы. Наивную девочку, а так же её подругу похищают албанские бандиты и собираются продать в рабство арабам. Взволнованный отец тут же едет во Францию, чтобы в одиночку спасти дочь…
Доп. информация: HDTV имеет иное наполнение кадра, чем BD и DVD http://screenshotcomparison.com/comparison/75837
Сэмпл: https://yadi.sk/d/sFLsSLkWUPSuS
Тип релиза: HDTV 1080i
Контейнер: TS
Видео: AVC, 1920x1080 (16:9), 25.000 fps, 12.5 Mbps (0.240 bit/pixel)
Аудио: MP2, 48.0 KHz, 2 ch, 192 Kbps, CBR (Russian)
MediaInfo
Общее
Идентификатор : 3 (0x3)
Полное имя : K:\Заложница.ts
Формат : MPEG-TS
Размер файла : 7,72 Гбайт
Продолжительность : 1 ч. 23 м.
Режим общего битрейта : Переменный
Общий поток : 13,3 Мбит/сек
Видео
Идентификатор : 2141 (0x85D)
Идентификатор меню : 21004 (0x520C)
Формат : AVC
Формат/Информация : Advanced Video Codec
Профиль формата : Main@L4.0
Параметр CABAC формата : Да
Параметр ReFrames формата : 3 кадра
Идентификатор кодека : 27
Продолжительность : 1 ч. 23 м.
Битрейт : 12,5 Мбит/сек
Ширина : 1920 пикселей
Высота : 1080 пикселей
Соотношение сторон : 16:9
Частота кадров : 25,000 кадров/сек
Стандарт вещания : Component
Цветовое пространство : YUV
Субдискретизация насыщенности : 4:2:0
Битовая глубина : 8 бит
Тип развёртки : Чересстрочная
Порядок развёртки : Верхнее поле первое
Бит/(Пиксели*Кадры) : 0.240
Размер потока : 7,23 Гбайт (94%)
Основные цвета : BT.709
Характеристики трансфера : BT.709
Коэффициенты матрицы : BT.709
Аудио
Идентификатор : 2142 (0x85E)
Идентификатор меню : 21004 (0x520C)
Формат : MPEG Audio
Версия формата : Version 1
Профиль формата : Layer 2
Идентификатор кодека : 4
Продолжительность : 1 ч. 23 м.
Вид битрейта : Постоянный
Битрейт : 192 Кбит/сек
Каналы : 2 канала
Частота : 48,0 КГц
Метод сжатия : С потерями
Задержка видео : -8 мс.
Размер потока : 114 Мбайт (1%)
Язык : Russian
Скриншоты
Скачать

Скачать торрент!

Как скачивать? · Что такое торрент? · Рейтинг и ограничения

Сайт не распространяет и не хранит электронные версии произведений, а лишь предоставляет доступ к создаваемому пользователями каталогу ссылок на торрент-файлы, которые содержат только списки хеш-сумм

[Профиль] [ЛС]
Показать сообщения:    
Ответить на тему

Текущее время: Сегодня 18:23

Часовой пояс: GMT + 4



Вы не можете начинать темы
Вы не можете отвечать на сообщения
Вы не можете редактировать свои сообщения
Вы не можете удалять свои сообщения
Вы не можете голосовать в опросах
Вы не можете прикреплять файлы к сообщениям
Вы не можете скачивать файлы