Кровавая вдова / Blood Widow (Джерами Бэкхелт / Jeremiah Buckhalt) [2014, США, ужасы, HDRip] VO (R.A.I.M)

Ответить на тему
 
Автор Сообщение

user ®

Стаж: 7 лет 7 месяцев

Сообщений: 20008

Пост Пост: #1 от 24-Июн-2014 02:40

[Цитировать]

Кровавая вдова / Blood Widow
Страна: США
Жанр: ужасы
Год выпуска: 2014
Продолжительность: 01:22:47
Перевод: Одноголосый закадровый R.A.I.M
Cубтитры: нет
Оригинальная аудиодорожка: нет
Режиссер: Джерами Бэкхелт / Jeremiah Buckhalt
В ролях: Даниэль Лиллей, Брендон Кайл Перерс, Кристофер де Падуа, Хосе Васкес, Кейли Килгор, Эмили Каттинг, Филип Маруновскийi, Габриэль Энн Хенли
Описание: После покупки дома в пригороде, успешная молодая пара, Лори и Хью, устраивают вечеринку для своих друзей. Ночью, во время вечеринки, несколько друзей решают осмотреть заброшенную школу, расположенную по соседству…
Сэмпл: http://multi-up.com/982185
Качество видео: HDRip (исходник не известен)
Формат видео: AVI
Видео: Xvid 640x352 23.98fps 1 041 Kbps
Аудио: Dolby AC3 48000Hz stereo 192kbps
MediaInfo
Format : AVI
Format/Info : Audio Video Interleave
File size : 736 MiB
Duration : 1h 22mn
Overall bit rate : 1 242 Kbps
Writing application : VirtualDubMod 1.5.10.2 (build 2540/release)
Writing library : VirtualDubMod build 2540/release
Video
ID : 0
Format : MPEG-4 Visual
Format profile : Advanced Simple@L5
Format settings, BVOP : Yes
Format settings, QPel : No
Format settings, GMC : No warppoints
Format settings, Matrix : Default (H.263)
Muxing mode : Packed bitstream
Codec ID : XVID
Codec ID/Hint : XviD
Duration : 1h 22mn
Bit rate : 1 041 Kbps
Width : 640 pixels
Height : 352 pixels
Display aspect ratio : 16:9
Frame rate : 23.976 fps
Resolution : 8 bits
Colorimetry : 4:2:0
Scan type : Progressive
Bits/(Pixel*Frame) : 0.193
Stream size : 616 MiB (84%)
Writing library : XviD 65
Audio
ID : 1
Format : AC-3
Format/Info : Audio Coding 3
Codec ID : 2000
Duration : 1h 22mn
Bit rate mode : Constant
Bit rate : 192 Kbps
Channel(s) : 2 channels
Channel positions : L R
Sampling rate : 48.0 KHz
Stream size : 114 MiB (15%)
Alignment : Split accross interleaves
Interleave, duration : 42 ms (1.00 video frame)
Interleave, preload duration : 500 ms
Скриншот c названием фильма Скриншоты
Скачать

Скачать торрент!

Как скачивать? · Что такое торрент? · Рейтинг и ограничения

Сайт не распространяет и не хранит электронные версии произведений, а лишь предоставляет доступ к создаваемому пользователями каталогу ссылок на торрент-файлы, которые содержат только списки хеш-сумм

[Профиль] [ЛС]
Показать сообщения:    
Ответить на тему

Текущее время: Сегодня 21:56

Часовой пояс: GMT + 4



Вы не можете начинать темы
Вы не можете отвечать на сообщения
Вы не можете редактировать свои сообщения
Вы не можете удалять свои сообщения
Вы не можете голосовать в опросах
Вы не можете прикреплять файлы к сообщениям
Вы не можете скачивать файлы