Сила веры / Leap of Faith (Ричард Пирс / Richard Pearce) [1992, США, драма, мелодрама, комедия, WEB-DL 720p] DVO + MVO (Ukr) + 2х AVO (Михалев, Володарский) + Sub Eng + Original Eng

Ответить на тему
 
Автор Сообщение

user ®

Стаж: 7 лет 7 месяцев

Сообщений: 20008

Пост Пост: #1 от 23-Июн-2014 20:25

[Цитировать]

Сила веры / Leap of Faith«Готов ли ты к чуду?»
Страна: США
Жанр: драма, мелодрама, комедия
Год выпуска: 1992
Продолжительность: 01:47:59
Перевод 1: Профессиональный (двухголосый закадровый)
Перевод 2: Авторский (одноголосый закадровый) Михалев
Перевод 3: Авторский (одноголосый закадровый) Володарский
Cубтитры: английские
Оригинальная аудиодорожка: английский
Режиссер: Ричард Пирс
В ролях: Стив Мартин, Дебра Уингер, Лолита Давидович, Лиам Нисон, Лукас Хаас, Мит Лоаф, Филип Сеймур Хоффман, М. К. Гейни, Ла Чэнз, Делорес Холл
Описание: Бывший преступник Джонас Найтингейл стал бродячим евангелистом, чьи проповеди можно скорее назвать религиозно-цирковыми представлениями. Случилось так, что Джонас «застрял» в небольшом провинциальном городишке, где половина жителей — безработные, выброшенные на улицу сталелитейной компанией. Проходимец вытрясает из горожан их последние деньги, не испытывая при этом ни малейших угрызений совести, но на одном из «шоу» происходит истинное чудо, заставляющее его всерьез поверить в бога.
Сэмпл: [url=http://www.mediafire.com/watch/047cw1q33rw2uam/%5B1992%5D_Leap_of_Faith_(1)]MediaFire[/url]
Тип релиза: WEB-DL 720p
Контейнер: MKV
Видео: AVC, 1280x718, 23.976fps, 3842kbps
Аудио #1: AC3, 48000Hz, 6ch, 384kbps RUS
Аудио #2: AC3, 48000Hz, 2ch, 192kbps UKR
Аудио #3: AC3, 48000Hz, 2ch, 192kbps AVO
Аудио #4: AC3, 48000Hz, 2ch, 192kbps AVO
Аудио #5: AC3, 48000Hz, 6ch, 384kbps ENG
Субтитры: softsub (SRT) вшитые
MediaInfo
General
Unique ID : 208125583576527752295504790249336310094 (0x9C93878428449521B15F45E4B301894E)
Complete name : E:\Films\Сила веры\[1992] Leap of Faith.mkv
Format : Matroska
Format version : Version 4 / Version 2
File size : 3.99 GiB
Duration : 1h 47mn
Overall bit rate : 5 291 Kbps
Encoded date : UTC 2014-06-21 19:53:12
Writing application : mkvmerge v6.9.1 ('Blue Panther') 64bit built on Apr 18 2014 18:23:38
Writing library : libebml v1.3.0 + libmatroska v1.4.1
Video
ID : 1
Format : AVC
Format/Info : Advanced Video Codec
Format profile : High@L3.1
Format settings, CABAC : No
Format settings, ReFrames : 2 frames
Codec ID : V_MPEG4/ISO/AVC
Duration : 1h 47mn
Bit rate : 3 842 Kbps
Width : 1 280 pixels
Height : 718 pixels
Display aspect ratio : 16:9
Frame rate : 23.976 fps
Color space : YUV
Chroma subsampling : 4:2:0
Bit depth : 8 bits
Scan type : Progressive
Bits/(Pixel*Frame) : 0.174
Stream size : 2.90 GiB (73%)
Language : English
Color primaries : BT.709-5, BT.1361, IEC 61966-2-4, SMPTE RP177
Transfer characteristics : BT.709-5, BT.1361
Matrix coefficients : BT.709-5, BT.1361, IEC 61966-2-4 709, SMPTE RP177
Audio #1
ID : 2
Format : AC-3
Format/Info : Audio Coding 3
Mode extension : CM (complete main)
Codec ID : A_AC3
Duration : 1h 47mn
Bit rate mode : Constant
Bit rate : 384 Kbps
Channel(s) : 6 channels
Channel positions : Front: L C R, Side: L R, LFE
Sampling rate : 48.0 KHz
Bit depth : 16 bits
Compression mode : Lossy
Stream size : 297 MiB (7%)
Title : Закадровый
Language : Russian
Audio #2
ID : 3
Format : AC-3
Format/Info : Audio Coding 3
Mode extension : CM (complete main)
Codec ID : A_AC3
Duration : 1h 47mn
Bit rate mode : Constant
Bit rate : 192 Kbps
Channel(s) : 2 channels
Channel positions : Front: L R
Sampling rate : 48.0 KHz
Bit depth : 16 bits
Compression mode : Lossy
Stream size : 148 MiB (4%)
Title : Закадровый
Language : Ukrainian
Audio #3
ID : 4
Format : AC-3
Format/Info : Audio Coding 3
Mode extension : CM (complete main)
Codec ID : A_AC3
Duration : 1h 47mn
Bit rate mode : Constant
Bit rate : 192 Kbps
Channel(s) : 2 channels
Channel positions : Front: L R
Sampling rate : 48.0 KHz
Bit depth : 16 bits
Compression mode : Lossy
Stream size : 148 MiB (4%)
Title : Михалев
Language : Russian
Audio #4
ID : 5
Format : AC-3
Format/Info : Audio Coding 3
Mode extension : CM (complete main)
Codec ID : A_AC3
Duration : 1h 47mn
Bit rate mode : Constant
Bit rate : 192 Kbps
Channel(s) : 2 channels
Channel positions : Front: L R
Sampling rate : 48.0 KHz
Bit depth : 16 bits
Compression mode : Lossy
Stream size : 148 MiB (4%)
Title : Володарский
Language : Russian
Audio #5
ID : 6
Format : AC-3
Format/Info : Audio Coding 3
Mode extension : CM (complete main)
Codec ID : A_AC3
Duration : 1h 47mn
Bit rate mode : Constant
Bit rate : 384 Kbps
Channel(s) : 6 channels
Channel positions : Front: L C R, Side: L R, LFE
Sampling rate : 48.0 KHz
Bit depth : 16 bits
Compression mode : Lossy
Stream size : 297 MiB (7%)
Title : Original
Language : English
Text
ID : 7
Format : UTF-8
Codec ID : S_TEXT/UTF8
Codec ID/Info : UTF-8 Plain Text
Language : English
Скриншоты
Скачать

Скачать торрент!

Как скачивать? · Что такое торрент? · Рейтинг и ограничения

Сайт не распространяет и не хранит электронные версии произведений, а лишь предоставляет доступ к создаваемому пользователями каталогу ссылок на торрент-файлы, которые содержат только списки хеш-сумм

[Профиль] [ЛС]
Показать сообщения:    
Ответить на тему

Текущее время: Сегодня 20:06

Часовой пояс: GMT + 4



Вы не можете начинать темы
Вы не можете отвечать на сообщения
Вы не можете редактировать свои сообщения
Вы не можете удалять свои сообщения
Вы не можете голосовать в опросах
Вы не можете прикреплять файлы к сообщениям
Вы не можете скачивать файлы