Гол живых мертвецов / Goal of the Dead (Тьерри Пуаро / Thierry Poiraud, Бенжамен Роше / Benjamin Rocher) [2014, Франция, ужасы, комедия, HDRip] VO (den904)

Ответить на тему
 
Автор Сообщение

user ®

Стаж: 7 лет 7 месяцев

Сообщений: 20008

Пост Пост: #1 от 23-Июн-2014 20:25

[Цитировать]

Гол живых мертвецов / Goal of the Dead
Страна: Франция
Жанр: ужасы, комедия
Год выпуска: 2014
Продолжительность: 02:01:04
Перевод: Одноголосый закадровый den904
Cубтитры: нет
Режиссер: Тьерри Пуаро / Thierry Poiraud, Бенжамен Роше / Benjamin Rocher
В ролях: Элбан Ленуар, Чарли Брунэо, Тифен Давьо, Ахмед Силла, Бруно Саломон, Патрик Лигарде, Ксавье Лоран, Себастьен Вандерберг, Дженни Арассе, Жан Франсуа Кэйри
Описание: Футболисты одной из лучших французских команд в конце игрового сезона приезжают в Каплонг, небольшой город на северо-востоке страны, чтобы поучаствовать в товарищеском матче с местными спортсменами. Однако одновременно с началом матча вспыхивает ужасная эпидемия, распространяющаяся по городу со скоростью лесного пожара. Таинственная инфекция превращает зараженных в жестоких зомби, жаждущих крови
Сэмпл: http://multi-up.com/982051
Качество видео: HDRip (BDRip 720p)
Формат видео: AVI
Видео: XviD, 725 kbps, 656 х 272 pixels, 23.976 fps
Аудио: MP3, 128 Kbps, 2 channels, 48.0 KHz
Внимание:НЕНОРМАТИВНАЯ ЛЕКСИКА!!!

MediaInfo
General
Complete name : D:\kirovtorrent\Goal.Of.The.Dead.2014.HDRip.745Mb.avi
Format : AVI
Format/Info : Audio Video Interleave
File size : 746 MiB
Duration : 2h 1mn
Overall bit rate : 862 Kbps
Writing application : VirtualDubMod 1.5.10.3 | www.virtualdub-fr.org || (build 2550/release)
Writing library : VirtualDubMod build 2550/release
Video
ID : 0
Format : MPEG-4 Visual
Format profile : Advanced Simple@L5
Format settings, BVOP : Yes
Format settings, QPel : No
Format settings, GMC : No warppoints
Format settings, Matrix : Custom
Codec ID : XVID
Codec ID/Hint : XviD
Duration : 2h 1mn
Bit rate : 725 Kbps
Width : 656 pixels
Height : 272 pixels
Display aspect ratio : 2.40:1
Frame rate : 23.976 fps
Color space : YUV
Chroma subsampling : 4:2:0
Bit depth : 8 bits
Scan type : Progressive
Compression mode : Lossy
Bits/(Pixel*Frame) : 0.169
Stream size : 628 MiB (84%)
Writing library : XviD 73
Audio
ID : 1
Format : MPEG Audio
Format version : Version 1
Format profile : Layer 3
Codec ID : 55
Codec ID/Hint : MP3
Duration : 2h 1mn
Bit rate mode : Constant
Bit rate : 128 Kbps
Channel(s) : 2 channels
Sampling rate : 48.0 KHz
Compression mode : Lossy
Stream size : 111 MiB (15%)
Alignment : Aligned on interleaves
Interleave, duration : 42 ms (1.00 video frame)
Interleave, preload duration : 504 ms
Writing library : LAME3.99r
Encoding settings : -m s -V 4 -q 2 -lowpass 17 -b 128
Скриншот c названием фильма Скриншоты
Скачать

Скачать торрент!

Как скачивать? · Что такое торрент? · Рейтинг и ограничения

Сайт не распространяет и не хранит электронные версии произведений, а лишь предоставляет доступ к создаваемому пользователями каталогу ссылок на торрент-файлы, которые содержат только списки хеш-сумм

[Профиль] [ЛС]
Показать сообщения:    
Ответить на тему

Текущее время: Сегодня 00:20

Часовой пояс: GMT + 4



Вы не можете начинать темы
Вы не можете отвечать на сообщения
Вы не можете редактировать свои сообщения
Вы не можете удалять свои сообщения
Вы не можете голосовать в опросах
Вы не можете прикреплять файлы к сообщениям
Вы не можете скачивать файлы