Школа для немузыкальных людей / Tone Deaf Clinic (Ким Чжин Ён / Kim Jin-Young) [2012, Южная Корея, романтическая комедия, музыка, DVDRip] VO (mi24)

Ответить на тему
 
Автор Сообщение

user ®

Стаж: 13 лет

Сообщений: 15071

Пост Пост: #1 от 22-Июн-2014 23:10

[Цитировать]

Школа для немузыкальных людей / Tone Deaf Clinic
Страна: Южная Корея
Жанр: романтическая комедия, музыка
Год выпуска: 2012
Продолжительность: 02:04:13
Перевод: Одноголосый закадровый mi24
Cубтитры: нет
Оригинальная аудиодорожка: нет
Режиссер: Ким Чжин Ён/ Kim Jin-Young
В ролях: Пак Ха Сон ,
Юн Сан Хён ,
Лим Чжон Ын,
Чхве Чжин Хёк ,
Пак Чхоль Мин ,
Сон Сэ Пёк,
Ким Хэ Сок ,
Ан Нэ Сан ,
Описание: Дон Чжу лишена музыкального слуха. Как назло, она влюбляется в одноклассника-хориста , и решает обратить на себя внимание парня прекрасным исполнением его любимой песни.
Девушка обращается в школу, в которой ее обязуются обучить пению в кратчайшие сроки, ее учитель Син Ён настроен крайне скептически, но берется помочь Дон Чжу.
Сэмпл: http://multi-up.com/981367
Качество видео: DVDRip
Формат видео: MKV
Видео: h 264,2 828 Кбит/с, 640x480, 29,970 кадра/сек
Аудио: 320Кбит/с,48Кгц,2 канала AC3
MediaInfo
Format : Matroska
Format version : Version 2
File size : 2.79 GiB
Duration : 2h 4mn
Overall bit rate mode : Variable
Overall bit rate : 3 211 Kbps
Writing application : Lavf51.12.1
Writing library : Lavf51.12.1
Video
ID : 1
Format : AVC
Format/Info : Advanced Video Codec
Format profile : Baseline@L3.0
Format settings, CABAC : No
Format settings, ReFrames : 1 frame
Format settings, GOP : M=1, N=12
Codec ID : V_MPEG4/ISO/AVC
Duration : 2h 4mn
Bit rate mode : Variable
Bit rate : 2 828 Kbps
Maximum bit rate : 3 466 Kbps
Width : 640 pixels
Height : 480 pixels
Display aspect ratio : 16:9
Frame rate mode : Constant
Frame rate : 29.970 fps
Original frame rate : 24.000 fps
Color space : YUV
Chroma subsampling : 4:2:0
Bit depth : 8 bits
Scan type : Progressive
Bits/(Pixel*Frame) : 0.307
Stream size : 2.45 GiB (88%)
Default : Yes
Forced : No
Audio
ID : 2
Format : AC-3
Format/Info : Audio Coding 3
Mode extension : CM (complete main)
Format settings, Endianness : Big
Codec ID : A_AC3
Duration : 2h 4mn
Bit rate mode : Constant
Bit rate : 320 Kbps
Channel(s) : 2 channels
Channel positions : Front: L R
Sampling rate : 48.0 KHz
Bit depth : 16 bits
Compression mode : Lossy
Stream size : 284 MiB (10%)
Default : Yes
Forced : No
Скриншот c названием фильма Скриншоты
Скачать

Скачать торрент! Школа для немузыкальных людей / Tone Deaf Clinic (Ким Чжин Ён / Kim Jin-Young) [2012, Южная Корея, романтическая комедия, музыка, DVDRip] VO (mi24)

Как скачивать? · Что такое торрент? · Рейтинг и ограничения

Сайт не распространяет и не хранит электронные версии произведений, а лишь предоставляет доступ к создаваемому пользователями каталогу ссылок на торрент-файлы, которые содержат только списки хеш-сумм

[Профиль] [ЛС]
Показать сообщения:    
Ответить на тему

Текущее время: Сегодня 20:05

Часовой пояс: GMT + 4



Вы не можете начинать темы
Вы не можете отвечать на сообщения
Вы не можете редактировать свои сообщения
Вы не можете удалять свои сообщения
Вы не можете голосовать в опросах
Вы не можете прикреплять файлы к сообщениям
Вы не можете скачивать файлы